<?xml version="1.0" standalone="no"?>
<!DOCTYPE svg PUBLIC "-//W3C//DTD SVG 1.1//EN" "http://www.w3.org/Graphics/SVG/1.1/DTD/svg11.dtd" >
<svg xmlns="http://www.w3.org/2000/svg">
<metadata>Generated by IcoMoon</metadata>
<defs>
<font id="thegem-socials" horiz-adv-x="1024">
<font-face units-per-em="1024" ascent="960" descent="-64" />
<missing-glyph horiz-adv-x="1024" />
<glyph unicode="&#x20;" horiz-adv-x="512" d="" />
<glyph unicode="&#xe600;" glyph-name="uniE093" d="M385.728-64h191.872l0.128 512 174.272 0.064 18.688 176.448h-193.088l0.256 88.32c0 46.016 3.136 70.656 69.184 70.656h121.984v176.512h-174.912c-169.536 0-208.576-87.616-208.576-231.552l0.192-103.936-128.704-0.064v-176.448h128.704v-512z" />
<glyph unicode="&#xe601;" glyph-name="uniE094" d="M995.776 848.64c-40.576-24.064-85.568-41.536-133.44-51.008-38.336 40.896-92.928 66.368-153.344 66.368-116.032 0-210.112-94.080-210.112-210.048 0-16.448 1.856-32.512 5.44-47.872-174.592 8.768-329.408 92.416-433.024 219.52-18.112-30.976-28.416-67.072-28.416-105.6 0-72.896 37.12-137.216 93.44-174.848-34.432 1.152-66.816 10.624-95.168 26.368 0-0.896 0-1.728 0-2.624 0-101.76 72.448-186.688 168.512-206.016-17.6-4.8-36.16-7.36-55.36-7.36-13.568 0-26.688 1.344-39.552 3.776 26.752-83.456 104.32-144.192 196.224-145.92-71.872-56.32-162.496-89.92-260.928-89.92-16.96 0-33.664 1.024-50.112 2.944 92.992-59.584 203.392-94.4 322.048-94.4 386.432 0 597.76 320.128 597.76 597.76 0 9.088-0.192 18.176-0.64 27.2 41.152 29.504 76.8 66.496 104.96 108.608-37.696-16.704-78.144-28.032-120.64-33.088 43.392 25.984 76.672 67.2 92.352 116.16z" />
<glyph unicode="&#xe602;" glyph-name="uniE095" d="M257.92 367.808c49.472 87.488-15.936 106.688-26.176 170.112-41.92 259.2 299.008 436.224 477.568 255.104 123.52-125.44 42.176-511.104-156.992-471.040-190.784 38.336 93.44 345.344-58.816 405.568-123.776 49.024-189.504-149.76-130.816-248.576-34.432-169.92-108.544-329.92-78.528-542.976 97.28 70.592 130.112 205.824 156.992 346.816 48.896-29.76 75.072-60.672 137.408-65.472 229.952-17.856 358.464 229.568 326.976 457.92-27.904 202.368-229.696 305.408-444.864 281.28-170.112-19.072-339.712-156.608-346.752-353.28-4.288-120.064 29.76-210.176 144-235.456z" />
<glyph unicode="&#xe603;" glyph-name="uniE096" d="M274.304 28.736c169.6 0 263.296 96.256 263.296 193.024 0 77.568-22.912 124.096-93.696 174.144-24.192 17.152-70.528 58.816-70.528 83.328 0 28.736 8.192 42.88 51.456 76.672 44.288 34.624 75.648 83.328 75.648 139.904 0 67.392-30.016 133.12-86.4 154.752h84.928l60.032 43.328c0 0-200.96 0-267.968 0-120.064 0-233.088-91.008-233.088-196.416 0-107.712 81.856-194.688 204.096-194.688 8.512 0 16.768 0.192 24.832 0.768-7.936-15.168-13.632-32.256-13.632-50.048 0-29.952 16.128-54.208 36.48-74.048-15.36 0-30.272-0.448-46.464-0.448-148.8 0.064-263.296-94.72-263.296-192.96 0-96.768 125.568-157.312 274.304-157.312zM300.8 530.112c-69.056 2.048-134.656 77.248-146.56 167.872-11.904 90.688 34.368 160.064 103.36 158.016s134.656-74.816 146.56-165.44c11.968-90.688-34.368-162.496-103.36-160.448zM291.648 354.048c24-0.256 46.4-4.096 66.688-10.688 55.808-38.72 95.872-60.672 107.136-104.96 2.112-8.96 3.264-18.176 3.264-27.648 0-78.208-50.368-139.328-194.944-139.328-102.848 0-177.088 65.088-177.088 143.296 0 76.672 92.096 140.416 194.944 139.328zM832 704v189.888h-64v-189.888h-192v-64h192v-194.112h64v194.112h192v64z" />
<glyph unicode="&#xe604;" glyph-name="uniE097" d="M329.472 181.248c0-46.784 4.928-82.56 14.72-107.2 9.856-24.64 27.392-47.936 52.864-69.824 25.344-21.76 56.064-38.72 92.032-50.56 36.032-11.776 63.552-17.664 110.4-17.664 41.216 0 79.552 4.16 115.072 12.416 35.456 8.32 73.6 20.352 117.312 40.896v153.984c-51.264-33.728-81.92-40.576-133.76-40.576-29.12 0-54.976 6.784-77.696 20.416-17.088 10.048-32.704 27.456-38.976 44.16-6.336 16.832-5.568 51.072-5.568 110.528l0.128 234.176h255.936v192h-255.936v256h-165.12c-6.528-52.8-18.56-96.384-35.904-130.496-17.344-34.24-40.384-63.488-69.12-87.936-28.544-24.384-73.536-43.136-113.728-56.192v-173.376h137.408v-330.752z" />
<glyph unicode="&#xe605;" glyph-name="uniE098" d="M704 458.112l-68.032-24-59.968 24v-124.032c0-119.936 86.144-206.080 192-206.080s192 86.144 192 192v128h-128v-128c0-35.264-28.736-64-64-64s-64 28.736-64 78.016v124.096zM256 128c105.856 0 192 86.144 192 192v256c0 35.264 28.736 64 64 64 35.2 0 64-28.672 64-49.92v-62.080l60.032-24 67.968 24v62.080c0 91.84-86.144 177.92-192 177.92s-192-86.080-192-192v-256c0-35.264-28.736-64-64-64s-64 28.736-64 64v128h-128v-128c0-105.856 86.144-192 192-192z" />
<glyph unicode="&#xe606;" glyph-name="uniE099" d="M512 960c-282.752 0-512-229.248-512-512s229.248-512 512-512 512 229.248 512 512-229.248 512-512 512zM73.152 448c0 61.952 13.696 120.832 38.016 173.952l209.344-558.592c-146.432 69.248-247.36 215.488-247.36 384.64zM512 20.544c-43.072 0-84.608 6.144-123.968 17.408l131.648 372.672 134.848-359.936c0.896-2.112 1.984-4.096 3.136-5.952-45.504-15.616-94.528-24.192-145.664-24.192zM572.352 648.384c26.432 1.344 50.24 4.032 50.24 4.032 23.68 2.752 20.864 36.544-2.752 35.264 0 0-71.104-5.44-116.928-5.44-43.072 0-115.584 5.44-115.584 5.44-23.68 1.344-26.432-33.856-2.816-35.264 0 0 22.4-2.688 46.016-4.032l68.352-182.464-96.064-280.512-159.744 462.976c26.496 1.344 50.24 4.032 50.24 4.032 23.616 2.752 20.864 36.544-2.752 35.264 0 0-71.104-5.44-116.928-5.44-8.192 0-17.92 0.192-28.224 0.512 78.4 116.032 213.312 192.704 366.592 192.704 114.24 0 218.24-42.56 296.384-112.192-1.92 0.128-3.712 0.384-5.696 0.384-43.136 0-73.728-36.544-73.728-75.84 0-35.264 20.864-65.024 43.072-100.288 16.768-28.544 36.224-65.088 36.224-117.888 0-36.544-14.4-79.040-33.344-138.24l-43.84-142.4-158.72 459.392zM950.848 448c0-157.696-87.744-295.36-218.24-369.344l134.080 377.408c25.024 60.992 33.344 109.696 33.344 153.088 0 15.744-1.024 30.336-2.944 43.968 34.24-60.928 53.76-130.816 53.76-205.12z" />
<glyph unicode="&#xe607;" glyph-name="3" d="M741.312 960h-458.816c-155.84 0-282.496-126.784-282.496-282.624v-458.752c0-156.032 126.72-282.56 282.56-282.56h458.816c155.904 0 282.688 126.592 282.688 282.56v458.752c-0.064 155.84-126.848 282.624-282.752 282.624zM932.928 218.624c0-105.664-85.888-191.872-191.616-191.872h-458.816c-105.664 0-191.744 86.208-191.744 191.872v458.752c0 105.664 86.016 191.744 191.744 191.744h458.816c105.728 0 191.616-86.016 191.616-191.744v-458.752zM511.936 711.872c-145.408 0-263.808-118.4-263.808-263.808 0-145.472 118.4-264 263.808-264 145.472 0 263.936 118.528 263.936 264-0.064 145.344-118.528 263.808-263.936 263.808zM511.936 275.072c-95.36 0-172.992 77.44-172.992 172.992 0 95.36 77.568 172.992 172.992 172.992 95.36 0 173.056-77.568 173.056-172.992-0.064-95.552-77.76-172.992-173.056-172.992zM786.816 788.8c-17.344 0-34.624-7.040-47.040-19.456s-19.52-29.568-19.52-47.168c0-17.472 7.040-34.624 19.52-47.104 12.416-12.224 29.696-19.52 47.040-19.52 17.664 0 34.752 7.232 47.104 19.52 12.352 12.48 19.584 29.696 19.584 47.104 0 17.536-7.168 34.752-19.584 47.168-12.288 12.416-29.44 19.456-47.104 19.456z" />
<glyph unicode="&#xe608;" glyph-name="uniE09B" d="M512 960c-282.304 0-512-229.696-512-512s229.696-512 512-512 512 229.696 512 512-229.696 512-512 512zM512 884.672c111.168 0 212.672-41.664 289.92-110.208-7.872-11.2-73.664-99.648-229.184-157.952-71.68 131.648-151.104 239.808-163.2 256 32.896 7.936 67.2 12.16 102.464 12.16zM326.080 843.136c11.52-15.808 89.664-124.096 162.112-252.928-204.544-54.336-384.704-53.568-404.288-53.312 28.352 135.744 119.808 248.512 242.176 306.24zM74.624 447.36c0 4.48 0.064 8.96 0.192 13.376 19.136-0.448 231.104-3.136 449.472 62.208 12.544-24.512 24.448-49.408 35.456-74.24-5.76-1.6-11.52-3.328-17.216-5.184-225.536-72.896-345.536-271.616-355.456-288.576-69.824 77.504-112.384 180.096-112.448 292.416zM511.936 10.048c-101.056 0-194.24 34.496-268.416 92.288 7.872 16.064 96.448 187.136 343.104 273.088 0.96 0.32 1.92 0.64 2.88 0.96 61.44-159.552 86.784-293.248 93.312-331.648-52.48-22.336-110.208-34.752-170.88-34.688zM756.352 84.8c-4.48 26.624-27.712 154.624-84.928 311.808 137.024 21.952 257.408-13.952 272.384-18.688-19.52-121.664-89.344-226.752-187.456-293.12zM644.672 465.536c-3.072 7.488-6.208 15.040-9.408 22.592-9.088 21.312-18.816 42.496-28.992 63.36 161.728 65.984 235.008 159.936 244.224 172.416 60.928-74.432 97.792-169.216 98.688-272.448-14.4 3.072-158.976 32.384-304.512 14.080z" />
<glyph unicode="&#xe609;" glyph-name="uniE09C" d="M587.392 654.272c116.992 70.208 179.456-28.544 119.552-140.352-59.776-111.744-114.368-184.576-142.976-184.576-28.544 0-50.496 74.752-83.2 205.44-33.792 135.104-33.6 378.432-174.144 350.848-132.48-26.048-306.624-233.984-306.624-233.984l41.6-54.528c0 0 85.76 67.584 114.368 33.792s137.728-441.984 174.144-517.248c31.808-66.048 119.488-153.344 215.744-91.008 96.128 62.336 415.808 335.296 473.088 657.6 57.152 322.24-384.704 254.72-431.552-25.984z" />
<glyph unicode="&#xe60a;" glyph-name="uniE09D" d="M66.048 640h189.952v-704h-189.952zM645.568 639.936c-69.568 0-104.256-33.152-133.568-55.616v55.68h-190.976v-704h190.976v443.2c0 0-6.976 88.256 98.816 88.256 63.744 0 93.184-36.288 93.184-88.256v-443.2h201.216v436.992c0 240-193.216 266.944-259.648 266.944zM64 800c0-53.019 42.981-96 96-96s96 42.981 96 96c0 53.019-42.981 96-96 96s-96-42.981-96-96z" />
<glyph unicode="&#xe60b;" glyph-name="uniE09E" d="M0.384 960v-196.352c455.808 0 826.752-371.328 826.752-827.648h196.864c0 564.48-459.264 1024-1023.616 1024zM478.848-64h197.12c0.064 372.864-303.232 676.16-675.84 676.16v-196.288c127.808 0 247.936-49.984 338.432-140.544 90.368-90.304 140.288-211.008 140.288-339.328zM136.32-62.72c75.456 0 136.512 60.672 136.512 135.808-0.064 74.688-61.056 136.064-136.512 136.064-75.2 0-136.32-61.312-136.32-136.064 0-75.136 61.12-135.808 136.32-135.808z" />
<glyph unicode="&#xe60c;" glyph-name="uniE09F" d="M727.744 625.664c-114.624 26.88-238.784 25.728-365.952 6.528-4.608-0.704-9.152-1.408-13.696-2.176l-42.24 78.272c-41.152-5.504-79.808-14.080-115.584-25.472l40.256-84.224c-65.792-25.472-119.744-61.76-158.656-105.408-64.256-72.96-89.664-164.8-58.816-254.272 6.208-18.048 14.592-35.136 24.96-51.2l478.080 131.328-132.736 245.824c4.544 0.896 9.216 1.792 13.952 2.624 214.656 38.272 332.096-20.864 396.416-83.84l-163.584-39.68-68.288 109.12c-39.040 2.304-84.096-0.064-136.256-8.96l120.32-216.896 478.080 131.264c-5.184 12.288-12.672 24.256-22.656 35.776-49.472 57.28-156.736 108.352-273.6 131.392zM174.72 333.696c-14.784 67.328-3.008 142.528 90.432 192.576l73.152-152.96-163.584-39.616z" />
<glyph unicode="&#xe60d;" glyph-name="uniE0A0" d="M754.752 657.792c28.16-21.312 63.104-34.048 101.12-34.048 92.864 0 168.128 75.264 168.128 168.128s-75.264 168.128-168.128 168.128c-92.8 0-168.128-75.264-168.128-168.128 0-0.064 0-0.128 0-0.128l-414.976-200.64c-28.736 22.912-65.088 36.736-104.64 36.736-92.864 0-168.128-75.328-168.128-168.128s75.264-168.128 168.128-168.128c33.536 0 64.768 9.984 91.008 26.88l428.672-207.232c0-0.064 0-0.128 0-0.128 0-92.864 75.264-168.128 168.128-168.128s168.128 75.264 168.128 168.128c0 92.864-75.264 168.128-168.128 168.128-38.016 0-72.96-12.736-101.12-34.048l-419.2 202.624c0.192 2.56 0.32 5.056 0.384 7.616l418.752 202.368z" />
<glyph unicode="&#xe60e;" glyph-name="uniE0A1" d="M505.472 703.552c24.832 24.832 37.312 55.296 37.312 91.328 0 35.072-12.48 65.088-37.312 89.92-24.768 24.768-55.36 37.184-91.392 37.184-34.944 0-64.96-12.416-89.792-37.184-24.832-24.896-37.312-54.848-37.312-89.92 0-36.032 12.48-66.496 37.312-91.328 24.896-24.832 54.848-37.248 89.792-37.248 36.032 0 66.624 12.416 91.392 37.248zM619.456 675.776c15.104-15.104 32.64-27.008 52.608-35.776 19.968-8.704 41.728-13.12 65.024-13.12 23.424 0 45.056 4.416 65.024 13.12 19.968 8.832 37.44 20.672 52.608 35.776 15.104 15.104 27.072 32.64 35.84 52.608s13.184 41.6 13.184 65.088c0 23.36-4.352 44.992-13.184 65.024-8.704 19.968-20.736 37.504-35.84 52.608s-32.576 27.072-52.608 35.776c-19.904 8.768-41.6 13.12-65.024 13.12-23.296 0-45.056-4.352-65.024-13.12-19.968-8.704-37.504-20.672-52.608-35.776-15.040-15.168-26.944-32.704-35.776-52.672-8.768-19.968-13.184-41.6-13.184-65.024s4.416-45.056 13.184-65.088c8.832-19.904 20.736-37.44 35.776-52.544zM170.048 695.488c27.328 0 50.176 9.472 68.736 28.48 18.496 19.072 27.712 42.176 27.712 69.504 0 26.304-9.28 48.96-27.712 67.904-18.56 19.008-41.408 28.544-68.736 28.544-27.2 0-50.432-9.536-69.312-28.544-19.072-18.944-28.544-41.6-28.544-67.904 0-27.328 9.536-50.432 28.544-69.44 18.944-19.008 42.112-28.544 69.312-28.544zM897.92 495.296c-20.416 20.48-44.608 36.544-72.32 48.256-27.84 11.712-57.344 17.536-88.512 17.536s-60.416-5.824-87.616-17.536c-27.328-11.712-51.136-27.328-71.616-46.784-9.728 36.032-29.504 65.92-59.2 89.856-29.76 23.872-64.576 35.84-104.576 35.84-25.344 0-49.152-5.376-71.616-16.064-22.272-10.816-41.856-25.856-58.304-45.312-6.976 25.28-20.48 46.464-40.96 63.552-20.416 17.088-44.8 25.536-73.152 25.536-33.088 0-61.12-11.456-83.968-34.304-22.912-22.848-22.080-50.944-22.080-84.032v-204.864h168.256v-167.744h281.92v-223.232h450.048v398.592c0 31.168-5.184 60.672-17.408 88.384-12.16 27.776-28.48 51.904-48.896 72.32z" />
<glyph unicode="&#xe60f;" glyph-name="uniE0A2" d="M979.712 445.504c0 258.304-210.56 467.776-470.208 467.776-25.792 0-51.136-2.112-75.712-6.144-44.16 28.8-96.704 45.504-153.216 45.504-155.072 0-280.576-125.632-280.576-280.64 0-56.384 16.576-108.8 45.184-152.768-3.84-24.064-5.824-48.64-5.824-73.728 0-258.368 210.432-467.776 470.144-467.776 29.312 0 57.856 2.88 85.568 7.872 43.072-26.752 93.888-42.304 148.288-42.304 155.072 0 280.64 125.632 280.64 280.64 0 58.56-17.92 113.024-48.704 158.080 2.816 20.8 4.416 41.984 4.416 63.488zM553.472 100.8c-149.44-7.808-219.328 25.28-283.392 85.376-71.552 67.136-42.816 143.68 15.488 147.584 58.24 3.904 93.184-66.048 124.288-85.44 31.040-19.392 149.184-63.552 211.584 7.808 67.968 77.632-45.184 117.824-128.128 129.984-118.4 17.536-267.904 81.536-256.256 207.808 11.648 126.080 107.136 190.848 207.68 199.936 128.128 11.648 211.584-19.392 277.568-75.712 76.288-65.088 35.008-137.792-13.568-143.616-48.448-5.824-102.784 107.008-209.6 108.672-110.080 1.728-184.448-114.56-48.576-147.584 135.936-33.024 281.472-46.592 333.952-170.816s-81.472-256.192-231.040-264z" />
<glyph unicode="&#xe610;" glyph-name="uniE0A3" d="M885.504 798.528c-233.152 15.68-509.568 19.968-747.008 0-73.728-8.256-124.224-97.984-129.728-166.144-11.648-143.168-11.648-224.64 0-367.808 5.568-68.16 54.784-158.4 129.792-167.872 240.256-15.744 515.264-17.92 747.008 0 72.576 12.608 124.224 99.712 129.792 167.872 11.648 143.168 11.648 233.536 0 376.768-5.632 68.16-46.336 154.112-129.856 157.184zM384 266.88v367.040l320-183.552-320-183.488z" />
<glyph unicode="&#xe611;" glyph-name="uniE0A4" d="M256 4.544v453.696l-213.888-213.824c43.84-101.056 119.296-185.152 213.888-239.872zM320-26.752c59.264-24 124.096-37.248 192-37.248 189.504 0 354.944 102.976 443.456 256h-635.456v-218.752zM426.24 736l-160.768 160.832c-158.272-87.104-265.472-255.424-265.472-448.832 0-42.496 5.184-83.776 14.976-123.264l411.264 411.264zM704 922.752c-59.328 24-124.096 37.248-192 37.248-60.544 0-118.592-10.56-172.48-29.824l364.48-364.416v356.992zM768 891.456v-635.456h218.752c24 59.328 37.248 124.096 37.248 192 0 189.504-102.976 354.944-256 443.456z" />
<glyph unicode="&#xe612;" glyph-name="uniE0A5" d="M975.616 384l-292.928 507.52h-341.376l292.992-507.52zM463.488 511.808l-170.624 295.68-292.864-507.328 170.688-295.68zM288.704-1.344h564.608l170.688 321.344h-552z" />
<glyph unicode="&#xe613;" glyph-name="uniE0A6" d="M0 451.52c0-117.809 95.503-213.312 213.312-213.312s213.312 95.503 213.312 213.312c0 117.809-95.503 213.312-213.312 213.312s-213.312-95.503-213.312-213.312zM597.376 451.52c0-117.809 95.503-213.312 213.312-213.312s213.312 95.503 213.312 213.312c0 117.809-95.503 213.312-213.312 213.312s-213.312-95.503-213.312-213.312z" />
<glyph unicode="&#xe614;" glyph-name="uniE0A7" d="M957.824 576h-57.408c-35.136 0-65.984 29.76-68.416 64 0 182.656-147.264 320-331.2 320h-167.808c-183.808 0-332.864-148.032-332.992-330.688v-362.816c0-182.592 149.184-330.496 332.992-330.496h358.4c183.936 0 332.608 147.904 332.608 330.56v234.368c0 36.48-29.44 75.072-66.176 75.072zM320 704h192c35.2 0 64-28.8 64-64s-28.8-64-64-64h-192c-35.2 0-64 28.8-64 64s28.8 64 64 64zM704 192h-384c-35.2 0-64 28.8-64 64s28.8 64 64 64h384c35.2 0 64-28.8 64-64s-28.8-64-64-64z" />
<glyph unicode="&#xe615;" glyph-name="uniE0A8" d="M512 960c-282.752 0-512-229.248-512-512s229.248-512 512-512 512 229.248 512 512c0 282.752-229.248 512-512 512zM748.544 147.84c-6.4-11.648-18.432-18.24-30.848-18.24-5.76 0-11.52 1.408-16.96 4.352-81.984 45.184-175.104 69.056-269.184 69.056-56.384 0-112.064-8.384-165.376-24.896-18.56-5.76-38.272 4.672-43.968 23.232-5.76 18.56 4.608 57.92 23.232 63.68 60.096 18.56 122.752 28.032 186.176 28.032 105.92 0 210.752-26.88 303.104-77.76 17.024-9.344 23.232-50.432 13.824-67.456zM813.568 340.736c-7.296-14.080-21.632-36.928-36.48-36.928-6.4 0-12.864 1.472-18.88 4.672-101.568 52.736-211.456 79.488-326.592 79.488-63.424 0-126.4-8.384-187.2-25.024-21.952-5.952-44.48 6.912-50.432 28.8-5.888 21.888 6.976 59.2 28.864 65.152 67.84 18.496 138.112 27.904 208.768 27.904 126.656 0 252.672-30.72 364.416-88.768 20.096-10.432 27.968-35.2 17.536-55.296zM882.816 526.080c-8.256-16.448-24.768-30.912-42.048-30.912-7.040 0-14.144 1.6-20.864 4.928-121.28 60.48-251.904 91.072-388.288 91.072-71.040 0-141.824-8.64-210.496-25.6-25.152-6.208-50.56 9.088-56.768 34.24-6.272 25.088 9.088 55.488 34.24 61.696 75.968 18.88 154.368 28.416 233.024 28.416 151.040 0 295.744-33.984 430.080-100.928 23.232-11.584 32.64-39.744 21.12-62.912z" />
<glyph unicode="&#xe616;" glyph-name="uniE0A9" d="M960 960h-914.432c-25.088 0-45.568-20.48-45.568-45.632v-914.368c0-35.328 28.672-64 64-64h914.432c25.088 0 45.568 20.48 45.568 45.632v914.368c0 35.328-28.672 64-64 64zM512.704 446.528v-446.528h-448.704v448h448v448h448v-449.472h-447.296z" />
<glyph unicode="&#xe617;" glyph-name="uniE0AA" d="M512 960c-282.752 0-512-229.248-512-512s229.248-512 512-512 512 229.248 512 512c0 282.816-229.248 512-512 512zM644.352 448.064l-83.904-0.064-0.064-307.2h-115.136v307.2h-76.8v105.856l76.8 0.064-0.128 62.336c0 86.4 23.424 138.944 125.12 138.944h84.736v-105.92h-52.992c-39.616 0-41.536-14.784-41.536-42.368l-0.128-52.992h95.232l-11.2-105.856z" />
<glyph unicode="&#xe618;" glyph-name="uniE0AB" d="M512 960c-282.752 0-512-229.248-512-512s229.248-512 512-512 512 229.248 512 512c0 282.816-229.248 512-512 512zM766.72 562.944c0.256-5.44 0.384-10.88 0.384-16.32 0-166.592-126.784-358.656-358.656-358.656-71.168 0-137.408 20.864-193.216 56.64 9.856-1.152 19.904-1.792 30.080-1.792 59.072 0 113.408 20.16 156.544 53.952-55.168 1.024-101.696 37.504-117.76 87.552 7.744-1.472 15.552-2.24 23.744-2.24 11.52 0 22.656 1.536 33.216 4.416-57.664 11.584-101.12 62.528-101.12 123.584 0 0.512 0 1.024 0 1.6 17.024-9.472 36.416-15.104 57.088-15.808-33.792 22.592-56.064 61.184-56.064 104.896 0 23.104 6.208 44.736 17.024 63.36 62.144-76.288 155.072-126.464 259.84-131.712-2.176 9.216-3.264 18.88-3.264 28.736 0 69.568 56.448 126.016 126.080 126.016 36.224 0 68.992-15.296 92.032-39.808 28.736 5.696 55.744 16.192 80.064 30.592-9.408-29.44-29.376-54.144-55.424-69.76 25.472 3.008 49.792 9.856 72.384 19.84-16.896-25.216-38.336-47.424-62.976-65.088z" />
<glyph unicode="&#xe619;" glyph-name="uniE0AC" d="M512 960c-282.752 0-512-229.248-512-512s229.248-512 512-512 512 229.248 512 512c0 282.816-229.248 512-512 512zM551.936 309.568c-37.44 2.88-53.12 21.44-82.432 39.296-16.128-84.608-35.84-165.76-94.208-208.064-18.048 127.808 26.432 223.808 47.104 325.76-35.2 59.328 4.224 178.56 78.464 149.184 91.328-36.16-79.168-220.352 35.328-243.328 119.488-24.064 168.32 207.36 94.208 282.624-107.136 108.672-311.68 2.496-286.528-153.088 6.144-38.016 45.376-49.536 15.68-102.080-68.544 15.168-89.024 69.248-86.4 141.312 4.224 117.952 105.984 200.512 208.064 211.968 129.088 14.464 250.176-47.36 266.944-168.768 18.88-137.024-58.24-285.504-196.224-274.816z" />
<glyph unicode="&#xe61a;" glyph-name="uniE0AD" d="M512 960c-282.752 0-512-229.248-512-512s229.248-512 512-512 512 229.248 512 512c0 282.816-229.248 512-512 512zM369.152 103.488c-113.344 0-208.96 46.144-208.96 119.872 0 74.816 87.232 147.072 200.576 147.008 12.352 0 23.68 0.32 35.392 0.32-15.488 15.040-27.776 33.536-27.776 56.384 0 13.568 4.352 26.56 10.368 38.144-6.144-0.448-12.416-0.64-18.88-0.64-93.12 0-155.456 66.24-155.456 148.352 0 80.32 86.080 149.632 177.6 149.632 51.072 0 204.16 0 204.16 0l-45.824-33.024h-64.704c42.944-16.512 65.792-66.56 65.792-117.888 0-43.072-23.872-80.192-57.6-106.56-32.96-25.792-39.168-36.544-39.168-58.432 0-18.688 35.328-50.432 53.76-63.488 53.952-38.144 71.36-73.6 71.36-132.672-0.064-73.728-71.424-147.008-200.64-147.008zM896 510.784h-128v-127.744h-63.936v127.744h-128.064v65.216h128.064v128h63.936v-128h128v-65.216zM433.216 343.168c-15.488 4.992-32.576 7.936-50.816 8.128-78.336 0.832-148.48-47.744-148.48-106.176 0-59.584 56.576-109.184 134.912-109.184 110.144 0 148.48 46.592 148.48 106.112 0 7.232-0.896 14.208-2.496 21.056-8.576 33.792-39.104 50.56-81.6 80.064zM468.096 607.68c-9.088 68.992-59.072 124.416-111.616 126.016-52.544 1.536-87.808-51.264-78.72-120.384 9.088-69.056 59.072-126.336 111.68-127.872 52.48-1.6 87.808 53.12 78.656 122.24z" />
<glyph unicode="&#xe61b;" glyph-name="uniE0AE" d="M512 960c-282.752 0-512-229.248-512-512s229.248-512 512-512 512 229.248 512 512c0 282.816-229.248 512-512 512zM703.936 486.4h-153.536l-0.064-140.48c0-35.648-0.448-56.192 3.328-66.304 3.776-10.048 13.12-20.48 23.36-26.496 13.632-8.192 29.12-12.224 46.592-12.224 31.104 0 49.472 4.096 80.256 24.32v-92.416c-26.24-12.352-49.088-19.52-70.4-24.512-21.248-4.992-44.224-7.488-68.992-7.488-28.096 0-44.672 3.52-66.24 10.624s-40 17.28-55.232 30.336c-15.296 13.12-25.792 27.136-31.744 41.92-5.888 14.784-8.832 36.224-8.832 64.32v215.424h-82.368v87.040c24.128 7.808 51.136 19.072 68.288 33.728 17.216 14.656 31.040 32.192 41.472 52.736 10.368 20.416 17.536 46.592 21.504 78.272h99.072v-153.6h153.536v-115.2z" />
<glyph unicode="&#xe61c;" glyph-name="uniE0AF" d="M512 960c-282.752 0-512-229.248-512-512s229.248-512 512-512 512 229.248 512 512c0 282.816-229.248 512-512 512zM512 585.216c-25.216 0-45.76-20.544-45.76-45.76v-182.976c0-75.648-61.568-137.216-137.216-137.216s-137.216 61.568-137.216 137.216v91.52h91.456v-91.456c0-25.216 20.544-45.76 45.76-45.76s45.76 20.544 45.76 45.76v182.912c0 75.648 61.568 137.216 137.216 137.216s137.216-61.568 137.216-127.232v-44.352l-58.624-17.088-32.896 17.152v44.352c0 15.168-20.544 35.712-45.696 35.712zM832.128 356.544c0-75.648-61.568-137.216-137.216-137.216s-137.216 61.568-137.216 147.264v88.576l32.896-17.152 58.624 17.152v-88.64c0-35.2 20.544-55.744 45.76-55.744s45.76 20.544 45.76 45.76v91.456h91.456v-91.456z" />
<glyph unicode="&#xe61d;" glyph-name="uniE0B0" d="M512 960c-282.752 0-512-229.248-512-512s229.248-512 512-512 512 229.248 512 512-229.248 512-512 512zM73.152 448c0 61.952 13.696 120.832 38.016 173.952l209.344-558.592c-146.432 69.248-247.36 215.488-247.36 384.64zM512 20.544c-43.072 0-84.608 6.144-123.968 17.408l131.648 372.672 134.848-359.936c0.896-2.112 1.984-4.096 3.136-5.952-45.504-15.616-94.528-24.192-145.664-24.192zM572.352 648.384c26.432 1.344 50.24 4.032 50.24 4.032 23.68 2.752 20.864 36.544-2.752 35.264 0 0-71.104-5.44-116.928-5.44-43.072 0-115.584 5.44-115.584 5.44-23.68 1.344-26.432-33.856-2.816-35.264 0 0 22.4-2.688 46.016-4.032l68.352-182.464-96.064-280.512-159.744 462.976c26.496 1.344 50.24 4.032 50.24 4.032 23.616 2.752 20.864 36.544-2.752 35.264 0 0-71.104-5.44-116.928-5.44-8.192 0-17.92 0.192-28.224 0.512 78.4 116.032 213.312 192.704 366.592 192.704 114.24 0 218.24-42.56 296.384-112.192-1.92 0.128-3.712 0.384-5.696 0.384-43.136 0-73.728-36.544-73.728-75.84 0-35.264 20.864-65.024 43.072-100.288 16.768-28.544 36.224-65.088 36.224-117.888 0-36.544-14.4-79.040-33.344-138.24l-43.84-142.4-158.72 459.392zM950.848 448c0-157.696-87.744-295.36-218.24-369.344l134.080 377.408c25.024 60.992 33.344 109.696 33.344 153.088 0 15.744-1.024 30.336-2.944 43.968 34.24-60.928 53.76-130.816 53.76-205.12z" />
<glyph unicode="&#xe61e;" glyph-name="1" d="M657.472 711.744h-286.976c-66.112 0-119.936-53.824-119.936-119.936v-286.976c0-66.112 53.76-120.064 119.936-120.064h287.040c66.112 0 119.872 53.952 119.872 120.064v286.976c-0.064 66.112-53.76 119.936-119.936 119.936zM513.92 283.2c-90.944 0-164.992 74.112-164.992 165.12 0 90.944 74.048 164.992 164.992 164.992 91.072 0 165.12-74.048 165.12-164.992 0-91.008-74.048-165.12-165.12-165.12zM715.392 590.4c-7.744-7.68-18.368-12.16-29.44-12.16-10.88 0-21.696 4.48-29.44 12.16-7.744 7.808-12.224 18.56-12.224 29.44 0 10.944 4.48 21.76 12.224 29.504s18.56 12.16 29.44 12.16c11.072 0 21.76-4.416 29.44-12.16 7.744-7.744 12.224-18.56 12.224-29.504 0-10.88-4.48-21.696-12.224-29.44zM873.984 809.984c-99.968 99.968-220.672 150.016-361.984 150.016s-262.016-50.048-361.984-150.016c-100.032-99.968-150.016-220.672-150.016-361.984 0-141.376 49.984-262.016 150.016-361.984s220.672-150.016 361.984-150.016c141.312 0 262.016 49.984 361.984 150.016s150.016 220.608 150.016 361.984c0 141.312-49.984 262.016-150.016 361.984zM834.304 304.832c0-97.536-79.296-176.768-176.832-176.768h-286.976c-97.472 0-176.768 79.168-176.768 176.768v286.976c0 97.408 79.296 176.768 176.768 176.768h287.040c97.472 0 176.832-79.296 176.832-176.768v-286.976zM513.92 556.544c-59.648 0-108.16-48.512-108.16-108.224 0-59.776 48.576-108.16 108.16-108.16 59.712 0 108.288 48.448 108.288 108.16 0.064 59.712-48.576 108.224-108.288 108.224z" />
<glyph unicode="&#xe61f;" glyph-name="uniE0B2" d="M631.296 409.536c42.816-117.632 60.224-213.44 63.552-233.344 73.408 49.664 125.696 128.32 140.288 219.392-11.136 3.52-101.248 30.4-203.84 13.952zM567.872 393.664c-184.576-64.32-250.88-192.384-256.768-204.416 55.488-43.264 125.248-69.056 200.896-69.056 45.376-0.064 88.64 9.216 127.872 25.984-4.864 28.736-23.872 128.832-69.824 248.192-0.768-0.192-1.472-0.448-2.176-0.704zM582.528 525.44c7.616-15.616 14.912-31.488 21.696-47.424 2.368-5.632 4.736-11.328 7.040-16.896 108.928 13.696 217.152-8.256 227.904-10.56-0.64 77.248-28.288 148.224-73.856 203.904-6.848-9.28-61.696-79.616-182.784-129.024zM534.848 444.672c4.288 1.344 8.576 2.688 12.864 3.84-8.192 18.624-17.152 37.248-26.496 55.552-163.456-48.896-322.112-46.848-336.448-46.528-0.064-3.328-0.128-6.656-0.128-9.984 0.064-84.096 31.872-160.832 84.16-218.88 7.424 12.672 97.216 161.408 266.048 216zM494.208 554.432c-54.272 96.448-112.704 177.472-121.344 189.312-91.584-43.2-160.064-127.616-181.248-229.184 14.656-0.192 149.504-0.768 302.592 39.872zM728.96 692.352c-57.792 51.264-133.76 82.496-216.96 82.496-26.368 0-52.096-3.136-76.672-9.088 9.024-12.16 68.48-93.12 122.112-191.616 116.416 43.584 165.632 109.824 171.52 118.208zM512 960c-282.752 0-512-229.248-512-512s229.248-512 512-512 512 229.248 512 512c0 282.816-229.248 512-512 512zM512 64.832c-211.264 0-383.168 171.904-383.168 383.168s171.904 383.168 383.168 383.168 383.168-171.904 383.168-383.168c0-211.264-171.904-383.168-383.168-383.168z" />
<glyph unicode="&#xe620;" glyph-name="uniE0B3" d="M512 960c-282.752 0-512-229.248-512-512s229.248-512 512-512 512 229.248 512 512c0 282.816-229.248 512-512 512zM816.128 587.328c-34.368-193.408-226.176-357.184-283.84-394.56-57.728-37.376-110.336 14.976-129.472 54.592-21.824 45.184-87.296 290.112-104.448 310.4s-68.608-20.288-68.608-20.288l-24.96 32.704c0 0 104.512 124.736 184 140.416 84.288 16.576 84.16-129.472 104.448-210.496 19.648-78.4 32.768-123.264 49.92-123.264s49.92 43.712 85.76 110.72c35.968 67.072-1.536 126.336-71.744 84.224 28.16 168.384 293.248 208.896 258.944 15.552z" />
<glyph unicode="&#xe621;" glyph-name="uniE0B4" d="M512 960c-282.752 0-512-229.248-512-512s229.248-512 512-512 512 229.248 512 512c0 282.816-229.248 512-512 512zM384 200h-128v448h128v-448zM323.968 675.456c-33.152 0-59.968 26.88-59.968 60.032s26.88 60.032 59.968 60.032c33.152-0.064 60.032-26.944 60.032-60.032 0-33.152-26.88-60.032-60.032-60.032zM832 200h-128v276.992c0 32.448-9.28 55.168-49.152 55.168-66.112 0-78.848-55.168-78.848-55.168v-276.992h-128v448h128v-42.816c18.304 14.016 64 42.752 128 42.752 41.536 0 128-24.832 128-174.848v-273.088z" />
<glyph unicode="&#xe622;" glyph-name="uniE0B5" d="M512 960c-282.752 0-512-229.248-512-512s229.248-512 512-512 512 229.248 512 512c0 282.816-229.248 512-512 512zM276.16 129.536c-46.016 0-83.392 37.12-83.392 83.072 0 45.696 37.376 83.264 83.392 83.264 46.144 0 83.456-37.568 83.52-83.264 0-45.952-37.312-83.072-83.52-83.072zM485.696 128.768c0 78.528-30.528 152.32-85.824 207.552-55.296 55.424-128.832 86.016-206.976 86.016v120.064c227.904 0 413.44-185.536 413.44-413.632h-120.64zM698.752 128.832c0 279.168-226.88 506.304-505.728 506.304v120.064c345.216 0 626.176-281.088 626.176-626.368h-120.448z" />
<glyph unicode="&#xe623;" glyph-name="uniE0B6" d="M512 960c-282.752 0-512-229.248-512-512s229.248-512 512-512 512 229.248 512 512c0 282.816-229.248 512-512 512zM547.328 366.72l-80.96 145.984c35.072 6.016 65.408 7.552 91.712 6.016l45.952-73.408 110.080 26.688c-43.264 42.368-122.304 82.176-266.816 56.448-3.2-0.576-6.336-1.216-9.408-1.792l89.344-165.44-321.728-88.384c-6.976 10.816-12.608 22.336-16.768 34.432-20.8 60.224-3.712 122.048 39.552 171.136 26.176 29.376 62.528 53.824 106.752 70.912l-27.072 56.704c24.064 7.68 50.112 13.44 77.76 17.152l28.416-52.672c3.072 0.512 6.144 1.024 9.28 1.472 85.568 12.928 169.152 13.696 246.272-4.416 78.656-15.488 150.848-49.856 184.128-88.448 6.72-7.744 11.776-15.808 15.232-24.064l-321.728-88.32zM297.472 371.072l110.080 26.688-49.216 102.912c-62.848-33.664-70.784-84.288-60.864-129.6z" />
<glyph unicode="&#xe624;" glyph-name="uniE0B7" d="M512 960c-282.752 0-512-229.248-512-512s229.248-512 512-512 512 229.248 512 512c0 282.816-229.248 512-512 512zM618.304 331.968c15.808 11.968 35.52 19.136 56.896 19.136 52.224 0 94.592-42.304 94.592-94.592 0-52.224-42.368-94.592-94.592-94.592s-94.528 42.304-94.528 94.592c0 0 0 0.064 0 0.064l-241.216 116.608c-14.784-9.536-32.32-15.168-51.2-15.168-52.224 0-94.592 42.368-94.592 94.592s42.368 94.592 94.592 94.592c22.272 0 42.688-7.744 58.88-20.608l233.472 112.768c0 0 0 0.064 0 0.064 0 52.224 42.368 94.592 94.528 94.592 52.224 0 94.592-42.304 94.592-94.592s-42.368-94.592-94.592-94.592c-21.376 0-41.024 7.168-56.896 19.136l-235.52-113.792c0-1.408-0.128-2.88-0.192-4.288l235.776-113.92z" />
<glyph unicode="&#xe625;" glyph-name="uniE0B8" d="M512 960c-282.752 0-512-229.248-512-512s229.248-512 512-512 512 229.248 512 512c0 282.816-229.248 512-512 512zM530.176 704.512c5.504 12.48 12.928 23.488 22.336 32.896 9.472 9.472 20.352 16.896 32.896 22.4 12.48 5.504 26.112 8.192 40.64 8.192 14.656 0 28.16-2.688 40.64-8.192 12.48-5.44 23.424-12.928 32.832-22.4 9.472-9.408 16.96-20.416 22.4-32.896 5.504-12.48 8.256-25.984 8.256-40.64s-2.752-28.16-8.256-40.64c-5.44-12.48-12.928-23.424-22.4-32.896-9.472-9.408-20.352-16.896-32.832-22.4-12.48-5.44-25.984-8.192-40.64-8.192-14.592 0-28.16 2.752-40.64 8.192-12.48 5.504-23.424 12.928-32.896 22.4-9.408 9.472-16.832 20.416-22.336 32.896s-8.256 26.048-8.256 40.64c0 14.656 2.752 28.16 8.256 40.64zM368.064 721.024c15.552 15.488 34.24 23.232 56.128 23.232 22.528 0 41.6-7.744 57.088-23.232 15.552-15.552 23.296-34.304 23.296-56.256 0-22.528-7.808-41.536-23.36-57.088-15.424-15.488-34.496-23.232-57.024-23.232-21.824 0-40.576 7.744-56.128 23.296s-23.36 34.56-23.36 57.088c0.064 21.888 7.808 40.64 23.36 56.192zM228.352 706.368c11.84 11.904 26.304 17.856 43.328 17.856 17.088 0 31.36-5.952 42.944-17.856 11.52-11.84 17.28-25.984 17.28-42.432 0-17.088-5.824-31.488-17.28-43.392-11.584-11.904-25.856-17.856-42.944-17.856-17.024 0-31.488 5.952-43.328 17.792-11.904 11.904-17.856 26.368-17.856 43.392 0 16.448 5.952 30.656 17.856 42.496zM768 128h-281.28v128h-176.192v128h-105.152v116.416c0 20.672-0.512 38.208 13.824 52.48 14.272 14.272 31.808 21.44 52.48 21.44 17.664 0 32.96-5.312 45.696-16 12.8-10.688 21.248-23.872 25.6-39.744 10.304 12.16 22.528 21.568 36.48 28.352 14.016 6.656 28.928 10.048 44.736 10.048 24.96 0 46.72-7.488 65.344-22.4 18.56-14.912 30.912-33.664 36.992-56.128 12.8 12.16 27.648 21.952 44.8 29.184 17.024 7.296 35.328 10.944 54.784 10.944 19.52 0 37.952-3.648 55.296-10.944 17.28-7.296 32.384-17.344 45.184-30.144s22.976-27.84 30.528-45.184c7.616-17.28 10.88-35.712 10.88-55.232v-249.088z" />
<glyph unicode="&#xe626;" glyph-name="uniE0B9" d="M512 960c-282.752 0-512-229.248-512-512s229.248-512 512-512 512 229.248 512 512c0 282.816-229.248 512-512 512zM650.816 145.216c-32.64 0-63.104 9.344-88.96 25.408-16.64-3.008-33.728-4.736-51.328-4.736-155.84 0-282.112 125.632-282.112 280.64 0 15.040 1.216 29.824 3.52 44.224-17.216 26.368-27.136 57.856-27.136 91.648 0 92.992 75.328 168.32 168.32 168.384 33.92 0 65.408-10.048 91.904-27.328 14.72 2.432 29.952 3.712 45.44 3.712 155.776 0 282.112-125.696 282.112-280.64 0-12.928-0.96-25.6-2.624-38.080 18.496-27.072 29.248-59.712 29.248-94.848 0-92.992-75.328-168.384-168.384-168.384zM475.136 500.544c-81.536 19.84-36.928 89.6 29.12 88.576 64.128-1.024 96.704-68.736 125.76-65.216 29.12 3.52 53.888 47.104 8.128 86.144-39.552 33.792-89.6 52.416-166.528 45.44-60.288-5.44-117.568-44.288-124.608-119.936-6.976-75.712 82.752-114.176 153.792-124.736 49.792-7.296 117.632-31.424 76.864-78.016-37.44-42.816-108.352-16.32-126.976-4.672-18.624 11.712-39.616 53.632-74.56 51.328-35.008-2.368-52.224-48.256-9.28-88.576 38.464-36.032 80.384-55.936 170.048-51.2 89.728 4.672 170.112 83.84 138.624 158.4s-118.848 82.688-200.384 102.464z" />
<glyph unicode="&#xe627;" glyph-name="uniE0BA" d="M512 960c-282.752 0-512-229.248-512-512s229.248-512 512-512 512 229.248 512 512c0 282.816-229.248 512-512 512zM826.56 333.376c-3.456-42.624-35.776-97.024-81.088-104.896-144.832-11.2-316.736-9.856-466.88 0-46.848 5.888-77.632 62.336-81.088 104.896-7.296 89.472-7.296 140.416 0 229.888 3.456 42.56 35.008 98.688 81.088 103.808 148.416 12.48 321.152 9.792 466.88 0 52.224-1.92 77.632-55.616 81.088-98.24 7.232-89.472 7.232-145.984 0-235.456zM448 320l192 128-192 128z" />
<glyph unicode="&#xe628;" glyph-name="uniE0BB" d="M512 960c-282.752 0-512-229.248-512-512s229.248-512 512-512 512 229.248 512 512c0 282.816-229.248 512-512 512zM512 832c50.944 0 99.52-9.92 144-27.904v-267.776l-273.344 273.344c40.384 14.4 83.968 22.336 129.344 22.336zM139.2 355.584c-7.296 29.568-11.2 60.544-11.2 92.416 0 145.088 80.384 271.296 199.104 336.64l120.576-120.64-308.48-308.416zM320 115.392c-70.976 41.024-127.552 104.128-160.384 179.904l160.384 160.384v-340.288zM512 64c-50.944 0-99.52 9.92-144 27.968v164.032h476.608c-66.432-114.752-190.464-192-332.608-192zM868.032 304h-164.032v476.608c114.752-66.432 192-190.464 192-332.608 0-50.944-9.92-99.52-27.968-144z" />
<glyph unicode="&#xe629;" glyph-name="uniE0BC" d="M512 960c-282.752 0-512-229.248-512-512s229.248-512 512-512 512 229.248 512 512c0 282.816-229.248 512-512 512zM610.752 704.576l169.472-293.632h-197.44l-169.536 293.632h197.504zM215.808 362.496l169.408 293.504 98.688-171.072-169.408-293.504-98.688 171.072zM709.44 191.424h-326.592l98.688 171.072h326.656l-98.752-171.072z" />
<glyph unicode="&#xe62a;" glyph-name="uniE0BD" d="M512 960c-282.752 0-512-229.248-512-512s229.248-512 512-512 512 229.248 512 512c0 282.816-229.248 512-512 512zM323.584 319.744c-71.744 0-129.856 58.112-129.856 129.856s58.112 129.856 129.856 129.856c71.744 0 129.856-58.112 129.856-129.856s-58.112-129.856-129.856-129.856zM701.76 319.744c-71.744 0-129.856 58.112-129.856 129.856s58.112 129.856 129.856 129.856c71.744 0 129.856-58.112 129.856-129.856s-58.112-129.856-129.856-129.856z" />
<glyph unicode="&#xe62b;" glyph-name="uniE0BE" d="M631.68 368.192h-239.36c-21.952 0-39.872-17.984-39.872-39.872s17.984-39.872 39.872-39.872h239.36c21.952 0 39.872 17.984 39.872 39.872s-17.92 39.872-39.872 39.872zM392.32 527.808h119.68c21.952 0 39.872 17.984 39.872 39.872 0 21.952-17.984 39.872-39.872 39.872h-119.68c-21.952 0-39.872-17.984-39.872-39.872-0.064-21.952 17.92-39.872 39.872-39.872zM512 960c-282.752 0-512-229.248-512-512s229.248-512 512-512 512 229.248 512 512c0 282.816-229.248 512-512 512zM831.168 334.912c0-113.856-92.672-206.080-207.36-206.080h-223.424c-114.56 0-207.616 92.224-207.616 206.016v226.176c0.064 113.856 92.992 206.144 207.616 206.144h104.64c114.688 0 206.464-85.632 206.464-199.488 1.536-21.312 20.736-39.872 42.624-39.872h35.776c22.912 0 41.28-24.064 41.28-46.784v-146.112z" />
<glyph unicode="&#xe62c;" glyph-name="uniE0BF" d="M451.712 629.44c-59.008 0-117.76-7.168-174.784-21.312-18.88-4.672-30.336-27.456-25.664-46.272s23.744-30.336 42.624-25.664c51.456 12.736 104.576 19.2 157.888 19.2 102.272 0 200.256-22.976 291.2-68.352 5.056-2.496 10.368-3.712 15.68-3.712 12.928 0 25.344 10.816 31.552 23.168 8.64 17.344 1.6 38.528-15.808 47.168-100.864 50.304-209.408 75.776-322.688 75.776zM451.712 331.776c-47.552 0-94.528-7.104-139.648-20.992-13.952-4.288-21.696-33.856-17.408-47.744 4.288-13.952 19.072-21.76 33.024-17.408 40 12.416 81.792 18.688 124.032 18.688 70.528 0 140.352-17.92 201.856-51.776 4.032-2.24 8.384-3.264 12.736-3.264 9.344 0 18.368 4.928 23.104 13.696 7.040 12.736 2.432 43.584-10.368 50.624-69.248 38.016-147.904 58.176-227.328 58.176zM725.056 409.024c-83.776 43.52-178.304 66.56-273.28 66.56-52.992 0-105.728-7.040-156.608-20.928-16.384-4.48-26.048-32.448-21.568-48.832s21.376-26.048 37.824-21.568c45.568 12.416 92.864 18.752 140.352 18.752 86.4 0 168.768-20.096 244.928-59.648 4.544-2.368 9.344-3.456 14.144-3.456 11.136 0 21.824 17.152 27.328 27.648 7.808 15.040 1.92 33.664-13.12 41.472zM512 960c-282.752 0-512-229.248-512-512s229.248-512 512-512 512 229.248 512 512c0 282.816-229.248 512-512 512zM512 64c-212.096 0-384 171.904-384 384s171.904 384 384 384 384-171.904 384-384c0-212.096-171.904-384-384-384z" />
<glyph unicode="&#xe62d;" glyph-name="uniE0C0" d="M512 960c-282.752 0-512-229.248-512-512s229.248-512 512-512 512 229.248 512 512c0 282.816-229.248 512-512 512zM832 447.296v-296.512c0-12.544-10.24-22.784-22.784-22.784h-585.216c-17.664 0-32 14.336-32 32v585.216c0 12.544 10.24 22.784 22.784 22.784h585.216c17.664 0 32-14.336 32-32v-288.704zM256 447.296h256.384v-255.296h-256.384zM512.384 704h255.616v-256.704h-255.616z" />
<glyph unicode="&#xe62e;" glyph-name="uniE0C1" d="M832 960h-640c-106.048 0-192-85.952-192-192v-640c0-106.048 85.952-192 192-192h640c106.048 0 192 85.952 192 192v640c0 106.048-85.952 192-192 192zM644.352 448.064l-83.904-0.064-0.064-307.2h-115.136v307.2h-76.8v105.856l76.8 0.064-0.128 62.336c0 86.4 23.424 138.944 125.12 138.944h84.736v-105.92h-52.992c-39.616 0-41.536-14.784-41.536-42.368l-0.128-52.992h95.232l-11.2-105.856z" />
<glyph unicode="&#xe62f;" glyph-name="uniE0C2" d="M832 960h-640c-106.048 0-192-85.952-192-192v-640c0-106.048 85.952-192 192-192h640c106.048 0 192 85.952 192 192v640c0 106.048-85.952 192-192 192zM766.72 562.944c0.256-5.44 0.384-10.88 0.384-16.32 0-166.592-126.784-358.656-358.656-358.656-71.168 0-137.408 20.864-193.216 56.64 9.856-1.152 19.904-1.792 30.080-1.792 59.072 0 113.408 20.16 156.544 53.952-55.168 1.024-101.696 37.504-117.76 87.552 7.744-1.472 15.552-2.24 23.744-2.24 11.52 0 22.656 1.536 33.216 4.416-57.664 11.584-101.12 62.528-101.12 123.584 0 0.512 0 1.024 0 1.6 17.024-9.472 36.416-15.104 57.088-15.808-33.792 22.592-56.064 61.184-56.064 104.896 0 23.104 6.208 44.736 17.024 63.36 62.144-76.288 155.072-126.464 259.84-131.712-2.176 9.216-3.264 18.88-3.264 28.736 0 69.568 56.448 126.016 126.080 126.016 36.224 0 68.992-15.296 92.032-39.808 28.736 5.696 55.744 16.192 80.064 30.592-9.408-29.44-29.376-54.144-55.424-69.76 25.472 3.008 49.792 9.856 72.384 19.84-16.896-25.216-38.336-47.424-62.976-65.088z" />
<glyph unicode="&#xe630;" glyph-name="uniE0C3" d="M832 960h-640c-106.048 0-192-85.952-192-192v-640c0-106.048 85.952-192 192-192h640c106.048 0 192 85.952 192 192v640c0 106.048-85.952 192-192 192zM551.936 309.568c-37.44 2.88-53.12 21.44-82.432 39.296-16.128-84.608-35.84-165.76-94.208-208.064-18.048 127.808 26.432 223.808 47.104 325.76-35.2 59.328 4.224 178.56 78.464 149.184 91.328-36.16-79.168-220.352 35.328-243.328 119.488-24.064 168.32 207.36 94.208 282.624-107.136 108.672-311.68 2.496-286.528-153.088 6.144-38.016 45.376-49.536 15.68-102.080-68.544 15.168-89.024 69.248-86.4 141.312 4.224 117.952 105.984 200.512 208.064 211.968 129.088 14.464 250.176-47.36 266.944-168.768 18.88-137.024-58.24-285.504-196.224-274.816z" />
<glyph unicode="&#xe631;" glyph-name="uniE0C4" d="M832 960h-640c-106.048 0-192-85.952-192-192v-640c0-106.048 85.952-192 192-192h640c106.048 0 192 85.952 192 192v640c0 106.048-85.952 192-192 192zM369.152 103.488c-113.344 0-208.96 46.144-208.96 119.872 0 74.816 87.232 147.072 200.576 147.008 12.352 0 23.68 0.32 35.392 0.32-15.488 15.040-27.776 33.536-27.776 56.384 0 13.568 4.352 26.56 10.368 38.144-6.144-0.448-12.416-0.64-18.88-0.64-93.12 0-155.456 66.24-155.456 148.352 0 80.32 86.080 149.632 177.6 149.632 51.072 0 204.16 0 204.16 0l-45.824-33.024h-64.704c42.944-16.512 65.792-66.56 65.792-117.888 0-43.072-23.872-80.192-57.6-106.56-32.96-25.792-39.168-36.544-39.168-58.432 0-18.688 35.328-50.432 53.76-63.488 53.952-38.144 71.36-73.6 71.36-132.672-0.064-73.728-71.424-147.008-200.64-147.008zM896 510.784h-128v-127.744h-63.936v127.744h-128.064v65.216h128.064v128h63.936v-128h128v-65.216zM468.096 607.68c-9.088 68.992-59.072 124.416-111.616 126.016-52.544 1.536-87.808-51.264-78.72-120.384 9.088-69.056 59.072-126.336 111.68-127.872 52.48-1.6 87.808 53.12 78.656 122.24zM433.216 343.168c-15.488 4.992-32.576 7.936-50.816 8.128-78.336 0.832-148.48-47.744-148.48-106.176 0-59.584 56.576-109.184 134.912-109.184 110.144 0 148.48 46.592 148.48 106.112 0 7.232-0.896 14.208-2.496 21.056-8.576 33.792-39.104 50.56-81.6 80.064z" />
<glyph unicode="&#xe632;" glyph-name="uniE0C5" d="M832 960h-640c-106.048 0-192-85.952-192-192v-640c0-106.048 85.952-192 192-192h640c106.048 0 192 85.952 192 192v640c0 106.048-85.952 192-192 192zM703.936 486.4h-153.536l-0.064-140.48c0-35.648-0.448-56.192 3.328-66.304 3.776-10.048 13.12-20.48 23.36-26.496 13.632-8.192 29.12-12.224 46.592-12.224 31.104 0 49.472 4.096 80.256 24.32v-92.416c-26.24-12.352-49.088-19.52-70.4-24.512-21.248-4.992-44.224-7.488-68.992-7.488-28.096 0-44.672 3.52-66.24 10.624s-40 17.28-55.232 30.336c-15.296 13.12-25.792 27.136-31.744 41.92-5.888 14.784-8.832 36.224-8.832 64.32v215.424h-82.368v87.040c24.128 7.808 51.136 19.072 68.288 33.728 17.216 14.656 31.040 32.192 41.472 52.736 10.368 20.416 17.536 46.592 21.504 78.272h99.072v-153.6h153.536v-115.2z" />
<glyph unicode="&#xe633;" glyph-name="uniE0C6" d="M832 960h-640c-106.048 0-192-85.952-192-192v-640c0-106.048 85.952-192 192-192h640c106.048 0 192 85.952 192 192v640c0 106.048-85.952 192-192 192zM512 585.216c-25.216 0-45.76-20.544-45.76-45.76v-182.976c0-75.648-61.568-137.216-137.216-137.216s-137.216 61.568-137.216 137.216v91.52h91.456v-91.456c0-25.216 20.544-45.76 45.76-45.76s45.76 20.544 45.76 45.76v182.912c0 75.648 61.568 137.216 137.216 137.216s137.216-61.568 137.216-127.232v-44.352l-58.624-17.088-32.896 17.152v44.352c0 15.168-20.544 35.712-45.696 35.712zM832.128 356.544c0-75.648-61.568-137.216-137.216-137.216s-137.216 61.568-137.216 147.264v88.576l32.896-17.152 58.624 17.152v-88.64c0-35.2 20.544-55.744 45.76-55.744s45.76 20.544 45.76 45.76v91.456h91.456v-91.456z" />
<glyph unicode="&#xe634;" glyph-name="uniE0C7" d="M832 960h-640c-106.048 0-192-85.952-192-192v-640c0-106.048 85.952-192 192-192h640c106.048 0 192 85.952 192 192v640c0 106.048-85.952 192-192 192zM117.76 448c0 55.68 12.288 108.544 34.176 156.224l188.032-501.824c-131.52 62.272-222.208 193.6-222.208 345.6zM512 64c-38.72 0-76.032 5.504-111.36 15.616l123.392 322.368 116.096-310.912c0.768-1.92 1.792-3.648 2.816-5.312-40.96-14.080-84.992-21.76-130.944-21.76zM566.208 628.032c23.744 1.216 45.12 3.648 45.12 3.648 21.312 2.496 18.752 32.832-2.496 31.68 0 0-63.872-4.864-105.088-4.864-38.72 0-103.808 4.864-103.808 4.864-21.184 1.152-23.68-30.464-2.496-31.68 0 0 20.096-2.432 41.344-3.584l61.44-163.968-94.208-252.096-135.616 416c23.744 1.216 45.12 3.648 45.12 3.648 21.248 2.496 18.752 32.832-2.496 31.68 0 0-63.872-4.864-105.088-4.864-7.36 0-16.128 0.192-25.344 0.448 70.528 104.192 191.68 173.056 329.408 173.056 102.656 0 196.096-38.272 266.24-100.8-1.728 0.128-3.328 0.32-5.12 0.32-38.784 0-66.24-32.832-66.24-68.16 0-31.68 18.752-58.432 38.72-90.112 15.040-25.6 25.728-39.744 25.728-87.168 0-32.832-12.928-71.040-29.952-124.16l-39.36-127.936-135.808 394.048zM710.144 116.16l120.448 339.072c22.464 54.784 29.952 98.56 29.952 137.536 0 14.144-0.896 27.264-2.624 39.488 30.784-54.72 48.32-117.504 48.32-184.256 0-141.696-78.848-265.344-196.096-331.84z" />
<glyph unicode="&#xe635;" glyph-name="23" d="M511.040 554.368c-59.648 0-108.096-48.512-108.096-108.16 0-59.712 48.512-108.16 108.096-108.16s108.16 48.512 108.16 108.16c0.064 59.648-48.512 108.16-108.16 108.16zM654.528 709.44h-286.848c-66.112 0-119.872-53.76-119.872-119.872v-286.848c0-66.048 53.76-119.936 119.872-119.936h286.848c66.112 0 119.744 53.888 119.744 119.936v286.848c0 66.112-53.632 119.872-119.744 119.872zM511.040 281.152c-90.88 0-164.928 74.112-164.928 165.056s73.984 164.928 164.928 164.928c90.944 0 164.992-73.984 164.992-164.928s-74.048-165.056-164.992-165.056zM712.384 588.16c-7.744-7.68-18.368-12.16-29.376-12.16-10.944 0-21.696 4.48-29.504 12.16-7.744 7.808-12.16 18.56-12.16 29.44 0 10.944 4.416 21.76 12.16 29.504 7.808 7.744 18.56 12.096 29.504 12.096 11.008 0 21.696-4.416 29.376-12.096 7.744-7.744 12.224-18.56 12.224-29.504 0-10.88-4.48-21.632-12.224-29.44zM968 904c-37.312 37.312-82.624 56-136 56h-640c-53.312 0-98.688-18.688-136-56s-56-82.688-56-136v-640c0-53.376 18.688-98.688 56-136s82.688-56 136-56h640c53.376 0 98.688 18.688 136 56s56 82.624 56 136v640c0 53.312-18.688 98.688-56 136zM831.232 302.72c0-97.408-79.296-176.64-176.768-176.64h-286.784c-97.408 0-176.64 79.168-176.64 176.64v286.848c0 97.408 79.232 176.64 176.64 176.64h286.848c97.408 0 176.768-79.232 176.768-176.64v-286.848z" />
<glyph unicode="&#xe636;" glyph-name="uniE0C9" d="M494.208 554.432c-54.272 96.448-112.704 177.472-121.344 189.312-91.584-43.2-160.064-127.616-181.248-229.184 14.656-0.192 149.504-0.768 302.592 39.872zM832 960h-640c-106.048 0-192-85.952-192-192v-640c0-106.048 85.952-192 192-192h640c106.048 0 192 85.952 192 192v640c0 106.048-85.952 192-192 192zM512 64.832c-211.264 0-383.168 171.904-383.168 383.168s171.904 383.168 383.168 383.168 383.168-171.904 383.168-383.168c0-211.264-171.904-383.168-383.168-383.168zM534.848 444.672c4.288 1.344 8.576 2.688 12.864 3.84-8.192 18.624-17.152 37.248-26.496 55.552-163.456-48.896-322.112-46.848-336.448-46.528-0.064-3.328-0.128-6.656-0.128-9.984 0.064-84.096 31.872-160.832 84.16-218.88 7.424 12.672 97.216 161.408 266.048 216zM582.528 525.44c7.616-15.616 14.912-31.488 21.696-47.424 2.368-5.632 4.736-11.328 7.040-16.896 108.928 13.696 217.152-8.256 227.904-10.56-0.64 77.248-28.288 148.224-73.856 203.904-6.848-9.28-61.696-79.616-182.784-129.024zM567.872 393.664c-184.576-64.32-250.88-192.384-256.768-204.416 55.488-43.264 125.248-69.056 200.896-69.056 45.376-0.064 88.64 9.216 127.872 25.984-4.864 28.736-23.872 128.832-69.824 248.192-0.768-0.192-1.472-0.448-2.176-0.704zM728.96 692.352c-57.792 51.264-133.76 82.496-216.96 82.496-26.368 0-52.096-3.136-76.672-9.088 9.024-12.16 68.48-93.12 122.112-191.616 116.416 43.584 165.632 109.824 171.52 118.208zM631.296 409.536c42.816-117.632 60.224-213.44 63.552-233.344 73.408 49.664 125.696 128.32 140.288 219.392-11.136 3.52-101.248 30.4-203.84 13.952z" />
<glyph unicode="&#xe637;" glyph-name="uniE0CA" d="M832 960h-640c-106.048 0-192-85.952-192-192v-640c0-106.048 85.952-192 192-192h640c106.048 0 192 85.952 192 192v640c0 106.048-85.952 192-192 192zM816.128 587.328c-34.368-193.408-226.176-357.184-283.84-394.56-57.728-37.376-110.336 14.976-129.472 54.592-21.824 45.184-87.296 290.112-104.448 310.4s-68.608-20.288-68.608-20.288l-24.96 32.704c0 0 104.512 124.736 184 140.416 84.288 16.576 84.16-129.472 104.448-210.496 19.648-78.4 32.768-123.264 49.92-123.264s49.92 43.712 85.76 110.72c35.968 67.072-1.536 126.336-71.744 84.224 28.16 168.384 293.248 208.896 258.944 15.552z" />
<glyph unicode="&#xe638;" glyph-name="uniE0CB" d="M832 960h-640c-106.048 0-192-85.952-192-192v-640c0-106.048 85.952-192 192-192h640c106.048 0 192 85.952 192 192v640c0 106.048-85.952 192-192 192zM384 200h-128v448h128v-448zM323.968 675.456c-33.152 0-59.968 26.88-59.968 60.032s26.88 60.032 59.968 60.032c33.152-0.064 60.032-26.944 60.032-60.032 0-33.152-26.88-60.032-60.032-60.032zM832 200h-128v276.992c0 32.448-9.28 55.168-49.152 55.168-66.112 0-78.848-55.168-78.848-55.168v-276.992h-128v448h128v-42.816c18.304 14.016 64 42.752 128 42.752 41.536 0 128-24.832 128-174.848v-273.088z" />
<glyph unicode="&#xe639;" glyph-name="uniE0CC" d="M832 960h-640c-106.048 0-192-85.952-192-192v-640c0-106.048 85.952-192 192-192h640c106.048 0 192 85.952 192 192v640c0 106.048-85.952 192-192 192zM276.16 129.536c-46.016 0-83.392 37.12-83.392 83.072 0 45.696 37.376 83.264 83.392 83.264 46.144 0 83.456-37.568 83.52-83.264 0-45.952-37.312-83.072-83.52-83.072zM485.696 128.768c0 78.528-30.528 152.32-85.824 207.552-55.296 55.424-128.832 86.016-206.976 86.016v120.064c227.904 0 413.44-185.536 413.44-413.632h-120.64zM698.752 128.832c0 279.168-226.88 506.304-505.728 506.304v120.064c345.216 0 626.176-281.088 626.176-626.368h-120.448z" />
<glyph unicode="&#xe63a;" glyph-name="uniE0CD" d="M832 960h-640c-106.048 0-192-85.952-192-192v-640c0-106.048 85.952-192 192-192h640c106.048 0 192 85.952 192 192v640c0 106.048-85.952 192-192 192zM547.328 366.72l-80.96 145.984c35.072 6.016 65.408 7.552 91.712 6.016l45.952-73.408 110.080 26.688c-43.264 42.368-122.304 82.176-266.816 56.448-3.2-0.576-6.336-1.216-9.408-1.792l89.344-165.44-321.728-88.384c-6.976 10.816-12.608 22.336-16.768 34.432-20.8 60.224-3.712 122.048 39.552 171.136 26.176 29.376 62.528 53.824 106.752 70.912l-27.072 56.704c24.064 7.68 50.112 13.44 77.76 17.152l28.416-52.672c3.072 0.512 6.144 1.024 9.28 1.472 85.568 12.928 169.152 13.696 246.272-4.416 78.656-15.488 150.848-49.856 184.128-88.448 6.72-7.744 11.776-15.808 15.232-24.064l-321.728-88.32zM297.472 371.072l110.080 26.688-49.216 102.912c-62.848-33.664-70.784-84.288-60.864-129.6z" />
<glyph unicode="&#xe63b;" glyph-name="uniE0CE" d="M832 960h-640c-106.048 0-192-85.952-192-192v-640c0-106.048 85.952-192 192-192h640c106.048 0 192 85.952 192 192v640c0 106.048-85.952 192-192 192zM618.304 331.968c15.808 11.968 35.52 19.136 56.896 19.136 52.224 0 94.592-42.304 94.592-94.592 0-52.224-42.368-94.592-94.592-94.592s-94.528 42.304-94.528 94.592c0 0 0 0.064 0 0.064l-241.216 116.608c-14.784-9.536-32.32-15.168-51.2-15.168-52.224 0-94.592 42.368-94.592 94.592s42.368 94.592 94.592 94.592c22.272 0 42.688-7.744 58.88-20.608l233.472 112.768c0 0 0 0.064 0 0.064 0 52.224 42.368 94.592 94.528 94.592 52.224 0 94.592-42.304 94.592-94.592s-42.368-94.592-94.592-94.592c-21.376 0-41.024 7.168-56.896 19.136l-235.52-113.792c0-1.408-0.128-2.88-0.192-4.288l235.776-113.92z" />
<glyph unicode="&#xe63c;" glyph-name="uniE0CF" d="M832 960h-640c-106.048 0-192-85.952-192-192v-640c0-106.048 85.952-192 192-192h640c106.048 0 192 85.952 192 192v640c0 106.048-85.952 192-192 192zM530.176 704.512c5.504 12.48 12.928 23.488 22.336 32.896 9.472 9.472 20.352 16.896 32.896 22.4 12.48 5.504 26.112 8.192 40.64 8.192 14.656 0 28.16-2.688 40.64-8.192 12.48-5.44 23.424-12.928 32.832-22.4 9.472-9.408 16.96-20.416 22.4-32.896 5.504-12.48 8.256-25.984 8.256-40.64s-2.752-28.16-8.256-40.64c-5.44-12.48-12.928-23.424-22.4-32.896-9.472-9.408-20.352-16.896-32.832-22.4-12.48-5.44-25.984-8.192-40.64-8.192-14.592 0-28.16 2.752-40.64 8.192-12.48 5.504-23.424 12.928-32.896 22.4-9.408 9.472-16.832 20.416-22.336 32.896s-8.256 26.048-8.256 40.64c0 14.656 2.752 28.16 8.256 40.64zM368.064 721.024c15.552 15.488 34.24 23.232 56.128 23.232 22.528 0 41.6-7.744 57.088-23.232 15.552-15.552 23.296-34.304 23.296-56.256 0-22.528-7.808-41.536-23.36-57.088-15.424-15.488-34.496-23.232-57.024-23.232-21.824 0-40.576 7.744-56.128 23.296s-23.36 34.56-23.36 57.088c0.064 21.888 7.808 40.64 23.36 56.192zM228.352 706.368c11.84 11.904 26.304 17.856 43.328 17.856 17.088 0 31.36-5.952 42.944-17.856 11.52-11.84 17.28-25.984 17.28-42.432 0-17.088-5.824-31.488-17.28-43.392-11.584-11.904-25.856-17.856-42.944-17.856-17.024 0-31.488 5.952-43.328 17.792-11.904 11.904-17.856 26.368-17.856 43.392 0 16.448 5.952 30.656 17.856 42.496zM768 128h-281.28v128h-176.192v128h-105.152v116.416c0 20.672-0.512 38.208 13.824 52.48 14.272 14.272 31.808 21.44 52.48 21.44 17.664 0 32.96-5.312 45.696-16 12.8-10.688 21.248-23.872 25.6-39.744 10.304 12.16 22.528 21.568 36.48 28.352 14.016 6.656 28.928 10.048 44.736 10.048 24.96 0 46.72-7.488 65.344-22.4 18.56-14.912 30.912-33.664 36.992-56.128 12.8 12.16 27.648 21.952 44.8 29.184 17.024 7.296 35.328 10.944 54.784 10.944 19.52 0 37.952-3.648 55.296-10.944 17.28-7.296 32.384-17.344 45.184-30.144s22.976-27.84 30.528-45.184c7.616-17.28 10.88-35.712 10.88-55.232v-249.088z" />
<glyph unicode="&#xe63d;" glyph-name="uniE0D0" d="M832 960h-640c-106.048 0-192-85.952-192-192v-640c0-106.048 85.952-192 192-192h640c106.048 0 192 85.952 192 192v640c0 106.048-85.952 192-192 192zM650.816 145.216c-32.64 0-63.104 9.344-88.96 25.408-16.64-3.008-33.728-4.736-51.328-4.736-155.84 0-282.112 125.632-282.112 280.64 0 15.040 1.216 29.824 3.52 44.224-17.216 26.368-27.136 57.856-27.136 91.648 0 92.992 75.328 168.32 168.32 168.384 33.92 0 65.408-10.048 91.904-27.328 14.72 2.432 29.952 3.712 45.44 3.712 155.776 0 282.112-125.696 282.112-280.64 0-12.928-0.96-25.6-2.624-38.080 18.496-27.072 29.248-59.712 29.248-94.848 0-92.992-75.328-168.384-168.384-168.384zM475.136 500.544c-81.536 19.84-36.928 89.6 29.12 88.576 64.128-1.024 96.704-68.736 125.76-65.216 29.12 3.52 53.888 47.104 8.128 86.144-39.552 33.792-89.6 52.416-166.528 45.44-60.288-5.44-117.568-44.288-124.608-119.936-6.976-75.712 82.752-114.176 153.792-124.736 49.792-7.296 117.632-31.424 76.864-78.016-37.44-42.816-108.352-16.32-126.976-4.672-18.624 11.712-39.616 53.632-74.56 51.328-35.008-2.368-52.224-48.256-9.28-88.576 38.464-36.032 80.384-55.936 170.048-51.2 89.728 4.672 170.112 83.84 138.624 158.4s-118.848 82.688-200.384 102.464z" />
<glyph unicode="&#xe63e;" glyph-name="uniE0D1" d="M448 320l192 128-192 128zM832 960h-640c-106.048 0-192-85.952-192-192v-640c0-106.048 85.952-192 192-192h640c106.048 0 192 85.952 192 192v640c0 106.048-85.952 192-192 192zM826.56 333.376c-3.456-42.624-35.776-97.024-81.088-104.896-144.832-11.2-316.736-9.856-466.88 0-46.848 5.888-77.632 62.336-81.088 104.896-7.296 89.472-7.296 140.416 0 229.888 3.456 42.56 35.008 98.688 81.088 103.808 148.416 12.48 321.152 9.792 466.88 0 52.224-1.92 77.632-55.616 81.088-98.24 7.232-89.472 7.232-145.984 0-235.456z" />
<glyph unicode="&#xe63f;" glyph-name="uniE0D2" d="M832 960h-640c-106.048 0-192-85.952-192-192v-640c0-106.048 85.952-192 192-192h640c106.048 0 192 85.952 192 192v640c0 106.048-85.952 192-192 192zM512 832c50.944 0 99.52-9.92 144-27.904v-267.776l-273.344 273.344c40.384 14.4 83.968 22.336 129.344 22.336zM128 448c0 145.088 80.384 271.296 199.104 336.64l120.576-120.64-308.48-308.416c-7.296 29.568-11.2 60.544-11.2 92.416zM320 115.392c-70.976 41.024-127.552 104.128-160.384 179.904l160.384 160.384v-340.288zM512 64c-50.944 0-99.52 9.92-144 27.968v164.032h476.608c-66.432-114.752-190.464-192-332.608-192zM868.032 304h-164.032v476.608c114.752-66.432 192-190.464 192-332.608 0-50.944-9.92-99.52-27.968-144z" />
<glyph unicode="&#xe640;" glyph-name="uniE0D3" d="M832 960h-640c-106.048 0-192-85.952-192-192v-640c0-106.048 85.952-192 192-192h640c106.048 0 192 85.952 192 192v640c0 106.048-85.952 192-192 192zM610.752 704.576l169.472-293.632h-197.44l-169.536 293.632h197.504zM215.808 362.496l169.408 293.504 98.688-171.072-169.408-293.504-98.688 171.072zM709.44 191.424h-326.592l98.688 171.072h326.656l-98.752-171.072z" />
<glyph unicode="&#xe641;" glyph-name="uniE0D4" d="M832 960h-640c-106.048 0-192-85.952-192-192v-640c0-106.048 85.952-192 192-192h640c106.048 0 192 85.952 192 192v640c0 106.048-85.952 192-192 192zM323.584 319.744c-71.744 0-129.856 58.112-129.856 129.856s58.112 129.856 129.856 129.856c71.744 0 129.856-58.112 129.856-129.856s-58.112-129.856-129.856-129.856zM701.76 319.744c-71.744 0-129.856 58.112-129.856 129.856s58.112 129.856 129.856 129.856c71.744 0 129.856-58.112 129.856-129.856s-58.112-129.856-129.856-129.856z" />
<glyph unicode="&#xe642;" glyph-name="uniE0D5" d="M832 960h-640c-106.048 0-192-85.952-192-192v-640c0-106.048 85.952-192 192-192h640c106.048 0 192 85.952 192 192v640c0 106.048-85.952 192-192 192zM831.168 334.912c0-113.856-92.672-206.080-207.36-206.080h-223.424c-114.56 0-207.616 92.224-207.616 206.016v226.176c0.064 113.856 92.992 206.144 207.616 206.144h104.64c114.688 0 206.464-85.632 206.464-199.488 1.536-21.312 20.736-39.872 42.624-39.872h35.776c22.912 0 41.28-24.064 41.28-46.784v-146.112zM631.68 368.192h-239.36c-21.952 0-39.872-17.984-39.872-39.872s17.984-39.872 39.872-39.872h239.36c21.952 0 39.872 17.984 39.872 39.872s-17.92 39.872-39.872 39.872zM392.32 527.808h119.68c21.952 0 39.872 17.984 39.872 39.872 0 21.952-17.984 39.872-39.872 39.872h-119.68c-21.952 0-39.872-17.984-39.872-39.872-0.064-21.952 17.92-39.872 39.872-39.872z" />
<glyph unicode="&#xe643;" glyph-name="uniE0D6" d="M725.056 409.024c-83.776 43.52-178.304 66.56-273.28 66.56-52.992 0-105.728-7.040-156.608-20.928-16.384-4.48-26.048-32.448-21.568-48.832s21.376-26.048 37.824-21.568c45.568 12.416 92.864 18.752 140.352 18.752 86.4 0 168.768-20.096 244.928-59.648 4.544-2.368 9.344-3.456 14.144-3.456 11.136 0 21.824 17.152 27.328 27.648 7.808 15.040 1.92 33.664-13.12 41.472zM832 960h-640c-106.048 0-192-85.952-192-192v-640c0-106.048 85.952-192 192-192h640c106.048 0 192 85.952 192 192v640c0 106.048-85.952 192-192 192zM512 64c-212.096 0-384 171.904-384 384s171.904 384 384 384 384-171.904 384-384c0-212.096-171.904-384-384-384zM451.712 629.44c-59.008 0-117.76-7.168-174.784-21.312-18.88-4.672-30.336-27.456-25.664-46.272s23.744-30.336 42.624-25.664c51.456 12.736 104.576 19.2 157.888 19.2 102.272 0 200.256-22.976 291.2-68.352 5.056-2.496 10.368-3.712 15.68-3.712 12.928 0 25.344 10.816 31.552 23.168 8.64 17.344 1.6 38.528-15.808 47.168-100.864 50.304-209.408 75.776-322.688 75.776zM451.712 331.776c-47.552 0-94.528-7.104-139.648-20.992-13.952-4.288-21.696-33.856-17.408-47.744 4.288-13.952 19.072-21.76 33.024-17.408 40 12.416 81.792 18.688 124.032 18.688 70.528 0 140.352-17.92 201.856-51.776 4.032-2.24 8.384-3.264 12.736-3.264 9.344 0 18.368 4.928 23.104 13.696 7.040 12.736 2.432 43.584-10.368 50.624-69.248 38.016-147.904 58.176-227.328 58.176z" />
<glyph unicode="&#xe644;" glyph-name="uniE0D7" d="M512.384 704h255.616v-256.704h-255.616zM832 960h-640c-106.048 0-192-85.952-192-192v-640c0-106.048 85.952-192 192-192h640c106.048 0 192 85.952 192 192v640c0 106.048-85.952 192-192 192zM832 447.296v-296.512c0-12.544-10.24-22.784-22.784-22.784h-585.216c-17.664 0-32 14.336-32 32v585.216c0 12.544 10.24 22.784 22.784 22.784h585.216c17.664 0 32-14.336 32-32v-288.704zM256 447.296h256.384v-255.296h-256.384z" />
<glyph unicode="&#xe645;" glyph-name="telegram" d="M21.5 466.2l234.8-87.6 90.9-292.3c5.8-18.7 28.7-25.6 43.9-13.2l130.9 106.6c13.7 11.2 33.3 11.7 47.6 1.3l236.1-171.4c16.3-11.8 39.3-2.9 43.4 16.7l172.9 831.9c4.4 21.5-16.6 39.4-37.1 31.5l-963.7-371.7c-23.8-9.2-23.6-42.9 0.3-51.8zM332.5 425.2l458.9 282.6c8.2 5.1 16.7-6.1 9.7-12.7l-378.7-352c-13.3-12.4-21.9-29-24.3-47l-12.9-95.6c-1.7-12.8-19.6-14-23.2-1.7l-49.6 174.3c-5.7 20 2.5 41.2 20.1 52.1z" />
<glyph unicode="&#xe646;" glyph-name="telegram-round" d="M632.5 617.5l-305.8-188.4c-11.7-7.3-17.2-21.4-13.4-34.7l33-116.2c2.4-8.2 14.3-7.4 15.5 1.1l8.6 63.7c1.6 12 7.3 23.1 16.2 31.3l252.3 234.7c4.7 4.4-1 11.9-6.4 8.5zM512.5 959.5c-282.8 0-512-229.2-512-512s229.2-512 512-512 512 229.2 512 512c0 282.8-229.2 512-512 512zM786.1 717.7l-115.2-554.5c-2.7-13.1-18.1-19-28.9-11.1l-157.3 114.2c-9.5 6.9-22.6 6.6-31.7-0.9l-87.2-71.1c-10.1-8.3-25.4-3.7-29.2 8.8l-60.6 194.9-156.4 58.4c-15.9 5.9-16.1 28.4-0.2 34.5l642.1 247.8c13.5 5.3 27.5-6.6 24.6-21z" />
<glyph unicode="&#xe647;" glyph-name="telegram-square" d="M832 959.7h-640c-106 0-192-86-192-192v-640c0-106 86-192 192-192h640c106 0 192 86 192 192v640c0 106.1-86 192-192 192zM784.1 718l-115-553.6c-2.7-13-18-19-28.9-11.1l-157.1 114c-9.5 6.9-22.6 6.6-31.7-0.9l-87.1-70.9c-10.1-8.3-25.3-3.7-29.2 8.8l-60.5 194.5-156.2 58.3c-15.9 5.9-16 28.3-0.2 34.5l641.2 247.4c13.7 5.2 27.6-6.7 24.7-21zM630.7 617.9l-305.3-188c-11.7-7.3-17.2-21.4-13.4-34.7l33-116c2.4-8.2 14.3-7.4 15.4 1.1l8.6 63.6c1.6 12 7.3 23 16.2 31.3l251.9 234.3c4.7 4.4-0.9 11.8-6.4 8.4z" />
<glyph unicode="&#xe648;" glyph-name="vk" d="M879.6 370.5c33.8-33 69.5-64 99.8-100.3 13.4-16.1 26.1-32.8 35.8-51.5 13.7-26.6 1.3-55.9-22.6-57.5l-148.4 0.1c-38.3-3.2-68.8 12.2-94.5 38.4-20.5 20.9-39.6 43.2-59.3 64.8-8.1 8.8-16.6 17.2-26.7 23.7-20.3 13.2-37.8 9.1-49.4-12-11.8-21.5-14.5-45.3-15.6-69.2-1.6-34.9-12.2-44.1-47.3-45.7-75-3.5-146.2 7.8-212.4 45.7-58.3 33.4-103.5 80.5-142.9 133.8-76.7 103.7-135.4 217.7-188.1 335-11.9 26.4-3.2 40.6 26 41.1 48.4 0.9 96.8 0.9 145.3 0.1 19.7-0.3 32.7-11.6 40.3-30.2 26.2-64.4 58.2-125.7 98.5-182.5 10.7-15.1 21.6-30.2 37.2-40.9 17.2-11.8 30.3-7.9 38.4 11.3 5.1 12.2 7.4 25.2 8.5 38.3 3.8 44.8 4.3 89.5-2.4 134.1-4.1 27.9-19.8 45.9-47.6 51.2-14.2 2.7-12.1 8-5.2 16.1 11.9 14 23.1 22.7 45.5 22.7h167.7c26.4-5.2 32.3-17.1 35.9-43.6l0.1-186.3c-0.3-10.3 5.1-40.8 23.7-47.6 14.8-4.8 24.6 7 33.5 16.4 40.2 42.6 68.8 93 94.4 145.1 11.4 22.9 21.1 46.7 30.6 70.5 7 17.7 18 26.3 37.9 26l161.4-0.1c4.8 0 9.6-0.1 14.3-0.9 27.2-4.6 34.7-16.3 26.3-42.9-13.2-41.7-39-76.4-64.2-111.3-26.9-37.2-55.7-73.2-82.4-110.7-24.6-34.2-22.6-51.5 7.9-81.2v0z" />
<glyph unicode="&#xe649;" glyph-name="vk-round" d="M511.5 959.5c-282.8 0-512-229.2-512-512s229.2-512 512-512 512 229.2 512 512c0 282.8-229.2 512-512 512zM870.6 210.4l-114.7 0.1c-29.6-2.5-53.2 9.4-73.1 29.7-15.8 16.2-30.6 33.4-45.8 50.1-6.3 6.8-12.8 13.3-20.6 18.3-15.7 10.2-29.2 7-38.2-9.3-9.1-16.6-11.2-35-12.1-53.5-1.2-27-9.4-34.1-36.6-35.3-58-2.7-113 6-164.2 35.3-45.1 25.8-80 62.2-110.5 103.4-59.3 80.2-104.7 168.3-145.4 258.9-9.2 20.4-2.5 31.4 20.1 31.8 37.4 0.7 74.8 0.7 112.3 0.1 15.2-0.2 25.3-9 31.2-23.3 20.3-49.8 45-97.2 76.1-141.1 8.3-11.7 16.7-23.3 28.8-31.6 13.3-9.1 23.4-6.1 29.7 8.7 3.9 9.4 5.7 19.5 6.6 29.6 2.9 34.6 3.3 69.2-1.9 103.6-3.2 21.6-15.3 35.5-36.8 39.6-11 2.1-9.4 6.2-4 12.4 9.2 10.8 17.9 17.5 35.2 17.5h129.6c20.4-4 25-13.2 27.8-33.7l0.1-144c-0.2-8 3.9-31.5 18.3-36.8 11.4-3.7 19 5.4 25.9 12.7 31.1 32.9 53.2 71.9 73 112.1 8.8 17.7 16.3 36.1 23.7 54.5 5.4 13.7 13.9 20.3 29.3 20.1l124.8-0.1c3.7 0 7.4-0.1 11.1-0.7 21-3.6 26.8-12.6 20.3-33.2-10.2-32.2-30.1-59.1-49.6-86-20.8-28.8-43.1-56.6-63.7-85.6-19-26.4-17.5-39.8 6.1-62.8 26.1-25.5 53.7-49.5 77.1-77.5 10.4-12.4 20.2-25.4 27.7-39.8 10.5-20.3 0.9-43-17.6-44.2z" />
<glyph unicode="&#xe64a;" glyph-name="vk-square" d="M832 959.7h-640c-106 0-192-86-192-192v-640c0-106 86-192 192-192h640c106 0 192 86 192 192v640c0 106.1-86 192-192 192zM782.6 371.5c26.4-25.8 54.3-50 77.9-78.3 10.5-12.6 20.4-25.6 28-40.2 10.7-20.8 1-43.6-17.6-44.9l-115.9 0.1c-29.9-2.5-53.7 9.5-73.8 30-16 16.3-30.9 33.7-46.3 50.6-6.3 6.9-13 13.4-20.8 18.5-15.9 10.3-29.5 7.1-38.6-9.4-9.2-16.8-11.3-35.4-12.2-54-1.2-27.2-9.5-34.4-36.9-35.7-58.6-2.7-114.2 6.1-165.9 35.7-45.5 26.1-80.8 62.8-111.6 104.4-59.9 81-105.7 170-146.9 261.5-9.3 20.6-2.5 31.7 20.3 32.1 37.8 0.7 75.6 0.7 113.5 0.1 15.4-0.2 25.5-9.1 31.5-23.6 20.5-50.3 45.4-98.1 76.9-142.5 8.4-11.8 16.9-23.6 29-31.9 13.4-9.2 23.7-6.2 30 8.8 4 9.5 5.8 19.7 6.6 29.9 3 35 3.4 69.9-1.9 104.7-3.2 21.8-15.5 35.8-37.2 40-11.1 2.1-9.4 6.2-4.1 12.6 9.3 10.9 18 17.7 35.5 17.7h131c20.6-4.1 25.2-13.4 28-34l0.1-145.4c-0.2-8 4-31.9 18.5-37.2 11.6-3.7 19.2 5.5 26.2 12.8 31.4 33.3 53.7 72.6 73.7 113.3 8.9 17.9 16.5 36.5 23.9 55 5.5 13.8 14.1 20.5 29.6 20.3l126-0.1c3.7 0 7.5-0.1 11.2-0.7 21.2-3.6 27.1-12.7 20.5-33.5-10.3-32.6-30.5-59.6-50.1-86.9-21-29-43.5-57.1-64.3-86.4-19.1-26.7-17.6-40.2 6.2-63.4z" />
<glyph unicode="&#xe64b;" glyph-name="whatsapp" d="M746.4 346.9c-12.8 6.4-75 36.8-86.6 41-11.6 4.3-20.1 6.4-28.6-6.4-8.4-12.5-32.7-40.9-40.1-49.3-7.4-8.3-14.8-8.9-27.4-3.2-12.7 6.4-53.6 19.7-102 63-37.7 33.7-63 75.1-70.5 87.9-7.4 12.7-0.8 19.7 5.5 26.1 5.8 5.7 12.8 14.6 19.1 22.2 6.2 7.7 8.2 12.8 12.6 21.1 4.2 8.9 2.1 15.9-1.1 22.2-3.2 6.4-28.5 68.8-39.1 93.6-10.2 24.8-20.7 21.6-28.5 21.6-7.3 0.6-15.7 0.6-24.2 0.6s-22.2-3.1-33.8-15.2c-11.6-12.7-44.4-43.3-44.4-105s45.4-121.6 51.7-130.5c6.3-8.3 89.3-135.6 216.5-190.4 30.3-12.7 53.9-20.4 72.3-26.7 30.3-9.6 57.9-8.3 79.8-5.1 24.4 3.9 75 30.6 85.6 60.5 10.8 29.9 10.8 54.8 7.6 60.5-3.1 5.7-11.5 8.9-24.2 14.6zM515.6 34.2h-0.7c-75.1 0-149.6 20.4-214.6 58.6l-15.3 9.1-159.2-41.4 42.7 154.7-10.1 15.9c-42 66.9-64.3 143.9-64.3 223.2 0 231.1 189.1 419.6 422 419.6 112.6 0 218.4-43.9 298-123.5 79.6-78.9 123.5-184.6 123.5-296.7-0.2-231.1-189.3-419.6-421.7-419.6zM874.6 810.9c-96.8 93.6-224.1 146.4-359.7 146.4-279.4 0-506.8-226.4-506.9-504.8 0-89 23.3-175.7 67.7-252.3l-72-261.5 268.9 70.1c74.1-40 157.5-61.3 242.4-61.4h0.3c279.5 0 507 226.5 507.2 504.9 0 134.8-52.6 261.7-148.3 357z" />
<glyph unicode="&#xe64c;" glyph-name="whatsapp-round" d="M511.5 960.5c-282.8 0-512-229.2-512-512s229.2-512 512-512 512 229.2 512 512c0 282.8-229.2 512-512 512zM518.1 140.7h-0.2c-53 0.1-105.1 13.4-151.3 38.3l-167.9-43.7 44.9 163.1c-27.7 47.8-42.3 101.9-42.3 157.4 0.1 173.7 142 314.9 316.4 314.9 84.7 0 164.1-32.9 224.5-91.3l-0.2-1c59.7-59.5 92.6-138.6 92.6-222.7 0-173.7-142-315-316.5-315zM518.6 718.7c-145.4 0-263.4-117.6-263.4-261.8 0-49.5 13.9-97.5 40.1-139.3l6.3-9.9-26.6-96.5 99.4 25.8 9.6-5.7c40.6-23.8 87.1-36.6 134-36.6h0.4l0.2-0.1c145.1 0 263.1 117.6 263.3 261.8 0 69.9-27.4 135.9-77.1 185.1-49.8 49.8-115.9 77.2-186.2 77.2zM672.9 345c-6.6-18.7-38.2-35.3-53.4-37.7-13.7-2-30.9-2.8-49.8 3.2-11.5 3.9-26.2 8.7-45.1 16.7-79.4 34.2-131.2 113.6-135.2 118.8-3.9 5.6-32.3 42.9-32.3 81.4s20.5 57.6 27.7 65.5c7.2 7.5 15.8 9.5 21.1 9.5s10.6 0 15.1-0.4c4.9 0 11.4 2 17.8-13.5 6.6-15.5 22.4-54.4 24.4-58.4 2-3.9 3.3-8.3 0.7-13.9-2.7-5.2-4-8.4-7.9-13.2-3.9-4.7-8.3-10.3-11.9-13.9-3.9-4-8.1-8.4-3.4-16.3 4.7-8 20.5-33.8 44-54.8 30.2-27 55.7-35.3 63.7-39.3 7.9-3.6 12.5-3.2 17.1 2s19.8 23 25 30.8c5.3 8 10.6 6.7 17.9 4 7.2-2.6 46.1-21.6 54.1-25.6l0.1 1.9c7.9-3.6 13.2-5.6 15.1-9.1s1.9-19-4.8-37.7z" />
<glyph unicode="&#xe64d;" glyph-name="whatsapp-square" d="M519.9 718.9c-144.9 0-262.6-117.2-262.6-261 0-49.3 13.9-97.2 40-138.8l6.3-9.9-26.6-96.2 99.1 25.7 9.5-5.7c40.4-23.8 86.8-36.4 133.5-36.4h0.4l0.2-0.1c144.6 0 262.3 117.2 262.4 261 0 69.7-27.3 135.5-76.9 184.5-49.4 49.6-115.3 76.9-185.3 76.9zM673.6 346.3c-6.6-18.6-38.1-35.2-53.3-37.6-13.6-2-30.8-2.8-49.7 3.2-11.5 3.9-26.1 8.7-45 16.6-79 34.1-130.7 113.2-134.6 118.4-3.9 5.5-32.2 42.8-32.2 81.2s20.4 57.4 27.6 65.3c7.2 7.5 15.7 9.5 21 9.5s10.5 0 15.1-0.4c4.9 0 11.4 2 17.7-13.4 6.6-15.4 22.3-54.2 24.3-58.2 2-3.9 3.3-8.3 0.7-13.8-2.7-5.2-4-8.3-7.8-13.1-3.9-4.7-8.3-10.3-11.9-13.8-3.9-4-8-8.3-3.4-16.2 4.7-8 20.4-33.7 43.9-54.7 30.1-26.9 55.6-35.2 63.5-39.2 7.8-3.5 12.4-3.2 17.1 2 4.6 5.2 19.7 22.9 25 30.7 5.3 8 10.6 6.7 17.8 4 7.2-2.6 45.9-21.5 53.9-25.5l0.1 1.9c7.9-3.5 13.1-5.5 15.1-9.1 1.9-3.7 1.9-19.2-4.9-37.8zM832 959.7h-640c-106 0-192-86-192-192v-640c0-106 86-192 192-192h640c106 0 192 86 192 192v640c0 106.1-86 192-192 192zM519.4 142.7h-0.2c-52.8 0.1-104.7 13.3-150.8 38.2l-167.4-43.7 44.8 162.6c-27.6 47.6-42.1 101.6-42.1 156.9 0.1 173.1 141.6 314 315.4 314 84.4 0 163.6-32.8 223.8-91.1l-0.2-1c59.6-59.3 92.3-138.2 92.3-222-0.1-173.1-141.7-313.9-315.6-313.9z" />
<glyph unicode="&#xe64e;" glyph-name="viber-new" d="M871.461 871.418c-23.978 21.752-127.43 86.837-343.411 87.694 0 0-255.717 16.785-379.893-95.573-69.025-68.169-92.319-169.736-94.888-293.398s-15.757-360.368 210.671-423.227c0 0-0.856-175.559-1.028-190.974 0-10.79 1.713-18.155 7.879-19.697 4.453-1.028 11.133 1.199 16.785 6.851 36.14 36.311 152.094 176.245 152.094 176.245 155.52-10.105 279.354 20.553 292.542 24.835 31.344 10.105 201.080 24.664 229.854 256.745 29.632 239.103-10.961 402.33-90.605 470.499zM777.087 307.23c0-0.171 0-0.343 0-0.514-11.818-20.382-26.719-38.88-44.361-54.637-0.171-0.171-0.171-0.171-0.343-0.343-15.244-12.846-30.316-20.039-45.046-21.752-2.227-0.343-4.453-0.514-6.509-0.343-6.509 0-13.017 0.856-19.183 2.912l-0.514 0.685c-22.78 6.337-60.632 22.437-123.834 57.207-36.482 19.868-71.251 42.819-103.965 68.682-16.443 12.846-32.029 26.719-46.759 41.449l-4.625 4.625c-0.514 0.514-1.028 1.028-1.541 1.542-14.73 14.73-28.603 30.487-41.449 46.759-25.863 32.714-48.814 67.483-68.682 103.965-34.769 63.201-50.869 101.054-57.207 123.834l-0.685 0.514c-2.055 6.166-2.912 12.674-2.912 19.183-0.171 2.227 0 4.453 0.343 6.509 1.884 14.73 9.078 29.802 21.752 45.046 0.171 0.171 0.171 0.171 0.343 0.343 15.758 17.642 34.084 32.543 54.637 44.361 0.171 0 0.343 0.171 0.514 0.171 20.553 10.79 40.079 7.022 53.267-8.564 0.171-0.171 27.576-33.057 39.394-49.157 12.161-17.128 23.465-34.769 33.742-52.925 13.531-24.321 5.138-49.157-8.221-59.433l-26.719-21.238c-13.531-10.962-11.818-31.173-11.818-31.173s39.736-150.21 188.063-188.063c0 0 20.382-1.713 31.173 11.818l21.238 26.891c10.277 13.36 35.112 21.752 59.433 8.221 18.155-10.448 35.797-21.581 52.925-33.742 16.1-11.818 49.157-39.394 49.157-39.394 15.415-13.36 19.012-32.886 8.392-53.439zM654.282 677.874c-29.974 32.714-71.251 50.698-125.718 54.637-7.879 0.514-13.873 7.536-13.36 15.415s7.536 13.873 15.415 13.36c61.489-4.453 110.303-26.034 145.072-63.886 34.769-38.024 51.897-85.981 50.698-142.332-0.171-7.879-6.68-14.045-14.387-14.045-0.171 0-0.171 0-0.343 0-8.050 0.171-14.216 6.851-14.045 14.73 0.857 49.328-13.188 89.407-43.332 122.121zM652.226 580.931c0.343-7.879-5.823-14.73-13.702-15.072-0.171 0-0.514 0-0.685 0-7.707 0-14.045 5.995-14.387 13.702-2.398 48.985-25.52 73.135-72.622 75.533-7.879 0.343-14.045 7.194-13.702 15.244 0.343 7.879 7.194 14.045 15.244 13.702 62.173-3.425 96.6-38.88 99.854-103.109zM787.878 511.392c-0.171 0-0.171 0 0 0-8.050 0-14.559 6.337-14.559 14.387-0.685 87.18-26.719 156.376-77.76 206.047s-115.441 75.191-191.488 75.705c-8.050 0-14.387 6.509-14.387 14.559 0 7.879 6.509 14.387 14.387 14.387 0 0 0 0 0.171 0 83.755-0.514 155.006-28.775 211.528-83.926 56.693-55.151 85.639-131.37 86.495-226.6 0-8.050-6.508-14.559-14.387-14.559z" />
<glyph unicode="&#xe64f;" glyph-name="viber-round" d="M653.164 479.58c0.119 0 0.119 0 0.238 0 5.352 0 9.871 4.281 9.99 9.752 0.832 39.127-11.060 72.427-35.203 98.829-24.142 26.283-58.037 41.268-100.732 44.36-5.471 0.357-10.347-3.806-10.703-9.276s3.806-10.347 9.276-10.704c37.819-2.735 66.481-15.223 87.293-37.938 20.931-22.715 30.683-50.544 30.089-84.796-0.118-5.47 4.163-10.108 9.752-10.227zM542.561 578.885c-5.59 0.238-10.347-4.044-10.585-9.514-0.238-5.59 4.044-10.347 9.514-10.585 32.705-1.665 48.76-18.434 50.425-52.447 0.238-5.352 4.638-9.514 9.99-9.514 0.119 0 0.357 0 0.476 0 5.471 0.238 9.752 4.995 9.514 10.466-2.258 44.597-26.163 69.215-69.334 71.594zM656.019 626.456c-39.246 38.295-88.72 57.918-146.876 58.275-0.119 0-0.119 0-0.119 0-5.471 0-9.99-4.519-9.99-9.99 0-5.59 4.4-10.109 9.99-10.109 52.804-0.357 97.521-18.077 132.961-52.566s53.518-82.536 53.993-143.070c0-5.59 4.519-9.99 10.109-9.99 5.471 0 9.99 4.519 9.99 10.109-0.594 66.123-20.693 119.046-60.058 157.341zM692.768 354.349c0 0-22.953 19.147-34.132 27.353-11.893 8.444-24.142 16.174-36.749 23.429-16.888 9.395-34.132 3.568-41.268-5.709l-14.747-18.672c-7.492-9.395-21.645-8.206-21.645-8.206-102.992 26.283-130.583 130.583-130.583 130.583s-1.189 14.034 8.206 21.645l18.553 14.747c9.276 7.136 15.104 24.38 5.709 41.268-7.136 12.606-14.985 24.856-23.429 36.749-8.206 11.179-27.234 34.013-27.353 34.132-9.157 10.822-22.715 13.439-36.987 5.946-0.119 0-0.238-0.119-0.357-0.119-14.271-8.206-26.997-18.553-37.938-30.802-0.119-0.119-0.119-0.119-0.238-0.238-8.801-10.585-13.796-21.050-15.104-31.278-0.238-1.427-0.357-2.973-0.238-4.519 0-4.519 0.595-9.039 2.022-13.32l0.476-0.357c4.4-15.817 15.58-42.1 39.722-85.985 13.796-25.332 29.732-49.474 47.69-72.189 8.92-11.298 18.553-22.24 28.781-32.467 0.357-0.357 0.714-0.714 1.070-1.070l3.21-3.21c10.228-10.228 21.050-19.861 32.467-28.781 22.715-17.958 46.858-33.894 72.189-47.69 43.884-24.142 70.167-35.322 85.985-39.722l0.357-0.476c4.281-1.427 8.801-2.022 13.32-2.022 1.427-0.119 2.973 0 4.519 0.238 10.228 1.189 20.693 6.184 31.278 15.104 0.119 0.119 0.119 0.119 0.238 0.238 12.25 10.941 22.596 23.786 30.802 37.938 0 0.119 0 0.238 0 0.357 7.375 14.271 4.877 27.829-5.826 37.105zM512 960c-282.77 0-512-229.23-512-512s229.23-512 512-512 512 229.23 512 512-229.23 512-512 512zM827.037 382.297c-19.98-161.147-137.837-171.256-159.601-178.273-9.157-2.973-95.142-24.261-203.129-17.245 0 0-80.514-97.164-105.608-122.377-3.925-3.925-8.563-5.471-11.655-4.757-4.281 1.070-5.471 6.184-5.471 13.677 0.119 10.703 0.714 132.605 0.714 132.605-157.223 43.647-148.065 208.005-146.281 293.871s17.958 156.39 65.886 203.724c86.223 78.017 263.782 66.362 263.782 66.362 149.968-0.595 221.801-45.787 238.451-60.891 55.301-47.334 83.487-160.673 62.912-326.696z" />
<glyph unicode="&#xe650;" glyph-name="viber-square" d="M648.164 477.58c0.119 0 0.119 0 0.238 0 5.352 0 9.871 4.281 9.99 9.752 0.832 39.127-11.060 72.427-35.203 98.829-24.142 26.283-58.037 41.268-100.732 44.36-5.471 0.357-10.347-3.806-10.703-9.276-0.357-5.471 3.806-10.347 9.276-10.704 37.819-2.735 66.481-15.223 87.293-37.938 20.931-22.715 30.683-50.544 30.089-84.796-0.118-5.47 4.163-10.108 9.752-10.227zM537.561 576.885c-5.59 0.238-10.347-4.044-10.585-9.514-0.238-5.59 4.044-10.347 9.514-10.585 32.705-1.665 48.76-18.434 50.425-52.447 0.238-5.352 4.638-9.514 9.99-9.514 0.119 0 0.357 0 0.476 0 5.471 0.238 9.752 4.995 9.514 10.466-2.258 44.597-26.163 69.215-69.334 71.594zM687.768 352.349c0 0-22.953 19.147-34.132 27.353-11.893 8.444-24.142 16.174-36.749 23.429-16.888 9.395-34.132 3.568-41.268-5.709l-14.747-18.672c-7.492-9.395-21.645-8.206-21.645-8.206-102.992 26.283-130.583 130.583-130.583 130.583s-1.189 14.034 8.206 21.645l18.553 14.747c9.276 7.136 15.104 24.38 5.709 41.268-7.136 12.606-14.985 24.856-23.429 36.749-8.206 11.179-27.234 34.013-27.353 34.132-9.157 10.822-22.715 13.439-36.987 5.946-0.119 0-0.238-0.119-0.357-0.119-14.271-8.206-26.997-18.553-37.938-30.802-0.119-0.119-0.119-0.119-0.238-0.238-8.801-10.585-13.796-21.050-15.104-31.278-0.238-1.427-0.357-2.973-0.238-4.519 0-4.519 0.595-9.039 2.022-13.32l0.476-0.357c4.4-15.817 15.58-42.1 39.722-85.985 13.796-25.332 29.732-49.474 47.69-72.189 8.92-11.298 18.553-22.24 28.781-32.467 0.357-0.357 0.714-0.714 1.070-1.070l3.21-3.21c10.228-10.228 21.050-19.861 32.467-28.781 22.715-17.958 46.858-33.894 72.189-47.69 43.884-24.142 70.167-35.322 85.985-39.722l0.357-0.476c4.281-1.427 8.801-2.022 13.32-2.022 1.427-0.119 2.973 0 4.519 0.238 10.228 1.189 20.693 6.184 31.278 15.104 0.119 0.119 0.119 0.119 0.238 0.238 12.25 10.941 22.596 23.786 30.802 37.938 0 0.119 0 0.238 0 0.357 7.375 14.271 4.877 27.829-5.826 37.105zM830 960h-636c-107.143 0-194-86.857-194-194v-636c0-107.143 86.857-194 194-194h636c107.143 0 194 86.857 194 194v636c0 107.143-86.857 194-194 194zM822.037 380.297c-19.98-161.147-137.837-171.256-159.601-178.273-9.157-2.973-95.142-24.261-203.129-17.245 0 0-80.514-97.164-105.608-122.377-3.925-3.925-8.563-5.471-11.655-4.757-4.281 1.070-5.471 6.184-5.471 13.677 0.119 10.703 0.714 132.605 0.714 132.605-157.223 43.647-148.065 208.005-146.281 293.871s17.958 156.39 65.886 203.724c86.223 78.017 263.782 66.362 263.782 66.362 149.968-0.595 221.801-45.787 238.451-60.891 55.301-47.334 83.487-160.673 62.912-326.696zM651.019 624.456c-39.246 38.295-88.72 57.918-146.876 58.275-0.119 0-0.119 0-0.119 0-5.471 0-9.99-4.519-9.99-9.99 0-5.59 4.4-10.109 9.99-10.109 52.804-0.357 97.521-18.077 132.961-52.566s53.518-82.536 53.993-143.070c0-5.59 4.519-9.99 10.109-9.99 5.471 0 9.99 4.519 9.99 10.109-0.594 66.123-20.693 119.046-60.058 157.341z" />
<glyph unicode="&#xe651;" glyph-name="ok" d="M462.6 240.2c-78.9 8.2-150.1 27.7-211 75.3-7.6 5.9-15.4 11.6-22.3 18.3-26.7 25.6-29.4 54.9-8.3 85.2 18 25.9 48.3 32.8 79.8 17.9 6.1-2.9 11.9-6.5 17.5-10.3 113.5-78 269.5-80.2 383.5-3.5 11.3 8.7 23.4 15.7 37.3 19.3 27.2 7 52.6-3 67.2-26.8 16.7-27.2 16.5-53.7-4.1-74.8-31.5-32.3-69.4-55.7-111.5-72.1-39.8-15.4-83.4-23.2-126.6-28.4 6.5-7.1 9.6-10.6 13.7-14.7 58.6-58.9 117.5-117.5 175.9-176.6 19.9-20.1 24.1-45.1 13.1-68.5-12-25.6-38.8-42.4-65.1-40.6-16.7 1.2-29.7 9.4-41.2 21.1-44.2 44.5-89.3 88.2-132.6 133.6-12.6 13.2-18.7 10.7-29.8-0.8-44.5-45.8-89.7-90.9-135.2-135.8-20.4-20.1-44.7-23.8-68.4-12.3-25.2 12.2-41.2 37.9-40 63.7 0.9 17.5 9.4 30.8 21.4 42.8 58 57.9 115.9 116 173.7 174 3.9 4 7.5 8.1 13 14zM510.7 442c-140.8 0.5-256.2 117.2-255.4 258.2 0.8 142.6 116.3 257.4 258.5 257 142.5-0.4 256.8-116.9 256.1-261-0.7-140.6-117-254.7-259.2-254.2zM638.7 699.8c-0.2 70-56 125.8-125.9 125.8-70.5 0.1-126.7-56.7-126.2-127.3 0.5-69.7 56.8-125.1 126.8-124.8 69.9 0.2 125.5 56.3 125.3 126.3z" />
<glyph unicode="&#xe652;" glyph-name="ok-round" d="M515.3 540c47.5 0.1 85.3 38.3 85.2 85.9s-38.1 85.6-85.6 85.6c-47.9 0.1-86.1-38.6-85.8-86.6 0.3-47.4 38.6-85.1 86.2-84.9zM512 960c-282.8 0-512-229.2-512-512s229.2-512 512-512 512 229.2 512 512c0 282.8-229.2 512-512 512zM515.5 801c96.9-0.3 174.6-79.5 174.1-177.6-0.5-95.6-79.5-173.3-176.2-172.9-95.7 0.3-174.1 79.7-173.6 175.7 0.6 97 79.1 175.1 175.7 174.8zM711.6 381.7c-21.4-22-47.2-37.9-75.8-49-27.1-10.5-56.7-15.8-86.1-19.3 4.4-4.8 6.5-7.2 9.3-10 39.8-40.1 79.9-79.9 119.6-120.1 13.5-13.7 16.4-30.7 8.9-46.6-8.2-17.4-26.4-28.8-44.2-27.6-11.4 0.8-20.2 6.4-28 14.4-30 30.3-60.7 60-90.1 90.9-8.6 9-12.7 7.3-20.3-0.5-30.2-31.2-61-61.8-91.9-92.4-13.9-13.7-30.4-16.2-46.5-8.4-17.1 8.3-28 25.8-27.2 43.3 0.6 11.9 6.4 21 14.5 29.1 39.4 39.4 78.8 78.9 118.1 118.4 2.7 2.7 5.1 5.5 8.8 9.5-53.6 5.6-102 18.8-143.4 51.2-5.2 4-10.5 7.9-15.2 12.4-18.1 17.4-20 37.3-5.6 58 12.2 17.6 32.8 22.3 54.2 12.2 4.1-2 8.1-4.4 11.9-7 77.1-53.1 183.2-54.6 260.7-2.4 7.7 5.9 15.9 10.7 25.4 13.1 18.5 4.8 35.8-2 45.7-18.2 11.3-18.6 11.2-36.7-2.8-51z" />
<glyph unicode="&#xe653;" glyph-name="ok-square" d="M515 540c48.1 0.1 86.4 38.8 86.3 87s-38.6 86.6-86.7 86.6c-48.6 0.1-87.3-39-86.9-87.7 0.3-47.9 39.1-86.1 87.3-85.9zM832 959.7h-640c-106 0-192-86-192-192v-640c0-106 86-192 192-192h640c106 0 192 86 192 192v640c0 106.1-86 192-192 192zM515.3 804.3c98.1-0.3 176.8-80.5 176.4-179.7-0.5-96.8-80.6-175.4-178.5-175-97 0.3-176.4 80.7-175.9 177.8 0.5 98.1 80.1 177.1 178 176.9zM713.9 379.8c-21.7-22.2-47.8-38.4-76.8-49.6-27.4-10.6-57.4-16-87.2-19.6 4.5-4.9 6.6-7.3 9.4-10.1 40.4-40.6 80.9-80.9 121.1-121.6 13.7-13.8 16.6-31.1 9-47.2-8.3-17.6-26.7-29.2-44.8-28-11.5 0.8-20.5 6.5-28.4 14.5-30.4 30.6-61.5 60.7-91.3 92-8.7 9.1-12.9 7.4-20.5-0.6-30.6-31.5-61.8-62.6-93.1-93.5-14-13.8-30.8-16.4-47.1-8.5-17.4 8.4-28.4 26.1-27.5 43.9 0.6 12.1 6.5 21.2 14.7 29.5 39.9 39.9 79.8 79.9 119.6 119.8 2.7 2.8 5.2 5.6 9 9.6-54.3 5.6-103.4 19.1-145.3 51.9-5.2 4.1-10.6 8-15.4 12.6-18.4 17.6-20.2 37.8-5.7 58.7 12.4 17.8 33.3 22.6 55 12.3 4.2-2 8.2-4.5 12.1-7.1 78.2-53.7 185.6-55.2 264.1-2.4 7.8 6 16.1 10.8 25.7 13.3 18.7 4.8 36.2-2.1 46.3-18.5 11.4-18.6 11.3-36.9-2.9-51.4z" />
<glyph unicode="&#xe654;" glyph-name="reddit" d="M1021.5 475.6c0 69.8-56.8 126.6-126.6 126.6-27.9 0-54.4-9.1-76.1-25.6-70.6 49.1-163.2 78.3-261.6 85.7l53.1 124.6 154.5-36.1c4.9-47.8 44.9-85.3 94-85.3 52.3 0 95 42.6 95 95s-42.6 95-95 95c-33.2 0-62.4-17.2-79.3-43l-180.6 42.2c-15.3 3.5-30.3-4.3-36.4-18.4l-73.4-172.3c-106.3-3.7-207.6-33.6-284-85.8-20.8 15.4-46.7 24-74.2 24-69.9 0-126.7-56.8-126.7-126.6 0-46.3 25.3-88.1 64-109.6-0.5-5.6-0.7-11.3-0.7-17 0-174.5 198.8-316.5 443.1-316.5s443.1 142 443.1 316.5c0 4.9-0.2 9.8-0.5 14.7 41.3 21 68.3 63.8 68.3 111.9zM858.8 792.1c17.4 0 31.7-14.2 31.7-31.7s-14.2-31.7-31.7-31.7c-17.4 0-31.7 14.2-31.7 31.7s14.3 31.7 31.7 31.7zM289.1 380.6c0 34.9 28.4 63.3 63.3 63.3s63.3-28.4 63.3-63.3c0-34.9-28.4-63.3-63.3-63.3s-63.3 28.4-63.3 63.3zM656.8 170.7c-43.7-31.6-95-47.4-146.2-47.4s-102.5 15.8-146.2 47.4c-14.2 10.3-17.3 30.1-7.1 44.2 10.3 14.1 30.1 17.3 44.2 7.1 65.3-47.2 152.9-47.3 218.1 0 14.1 10.2 33.9 7.2 44.2-7.1 10.4-14.2 7.1-34-7-44.2zM668.9 317.3c-34.9 0-63.3 28.4-63.3 63.3s28.4 63.3 63.3 63.3c34.9 0 63.3-28.4 63.3-63.3s-28.4-63.3-63.3-63.3z" />
<glyph unicode="&#xe655;" glyph-name="reddit-round" d="M422 396.2c0 26-21.2 47.2-47.2 47.2s-47.2-21.2-47.2-47.2c0-26 21.2-47.2 47.2-47.2s47.2 21.2 47.2 47.2zM752.6 655.9c13.1 0 23.7 10.6 23.7 23.6 0 13.1-10.7 23.6-23.7 23.6s-23.7-10.6-23.7-23.6c0.1-13 10.7-23.6 23.7-23.6zM574.1 277.9c-48.6-35.3-114-35.2-162.7 0-10.5 7.6-25.3 5.2-33-5.3-7.6-10.5-5.3-25.3 5.3-33 32.6-23.6 70.9-35.4 109.1-35.4s76.5 11.8 109.1 35.4c10.5 7.6 13 22.4 5.2 33-7.7 10.6-22.4 12.9-33 5.3zM511.5 960.5c-282.8 0-512-229.2-512-512s229.2-512 512-512 512 229.2 512 512c0 282.8-229.2 512-512 512zM823 383.6c0.2-3.7 0.4-7.3 0.4-11 0-130.2-148.3-236.1-330.6-236.1s-330.6 105.9-330.6 236.1c0 4.3 0.1 8.5 0.5 12.7-28.9 16-47.7 47.2-47.7 81.8 0 52.1 42.4 94.4 94.5 94.4 20.5 0 39.8-6.4 55.4-17.9 57 38.9 132.6 61.2 211.9 64l54.8 128.5c4.6 10.5 15.7 16.3 27.2 13.7l134.7-31.5c12.6 19.2 34.4 32.1 59.2 32.1 39.1 0 70.9-31.8 70.9-70.9s-31.9-70.9-70.9-70.9c-36.6 0-66.5 28-70.1 63.6l-115.3 26.9-39.6-93c73.4-5.5 142.5-27.3 195.2-63.9 16.2 12.3 36 19.1 56.8 19.1 52.1 0 94.5-42.4 94.5-94.4-0.2-35.7-20.3-67.6-51.2-83.3zM610.9 443.4c-26 0-47.2-21.2-47.2-47.2s21.2-47.2 47.2-47.2c26 0 47.2 21.2 47.2 47.2 0.1 26-21.1 47.2-47.2 47.2z" />
<glyph unicode="&#xe656;" glyph-name="reddit-square" d="M572.8 277.5c-48.5-35.1-113.6-35.1-162.1 0-10.5 7.6-25.2 5.2-32.8-5.3s-5.3-25.2 5.3-32.8c32.5-23.5 70.6-35.2 108.6-35.2s76.2 11.7 108.6 35.2c10.5 7.6 12.9 22.3 5.2 32.8-7.6 10.7-22.3 12.9-32.8 5.3zM421.3 395.4c0 25.9-21.1 47-47 47s-47-21.1-47-47 21.1-47 47-47c25.9-0.1 47 21.1 47 47zM750.6 654c13 0 23.6 10.6 23.6 23.6s-10.6 23.6-23.6 23.6c-12.9 0-23.6-10.6-23.6-23.6s10.7-23.6 23.6-23.6zM832 959.7h-640c-106 0-192-86-192-192v-640c0-106 86-192 192-192h640c106 0 192 86 192 192v640c0 106.1-86 192-192 192zM820.7 382.8c0.2-3.6 0.4-7.3 0.4-10.9 0-129.7-147.7-235.2-329.3-235.2s-329.3 105.6-329.3 235.2c0 4.2 0.1 8.5 0.5 12.6-28.8 16-47.6 47-47.6 81.4 0 51.9 42.2 94.1 94.2 94.1 20.4 0 39.7-6.4 55.1-17.8 56.8 38.8 132.1 61 211.1 63.7l54.5 128c4.5 10.5 15.7 16.3 27.1 13.7l134.2-31.4c12.6 19.2 34.3 31.9 58.9 31.9 38.9 0 70.6-31.7 70.6-70.6s-31.7-70.6-70.6-70.6c-36.5 0-66.2 27.9-69.9 63.4l-114.8 26.8-39.5-92.6c73.1-5.5 141.9-27.2 194.4-63.7 16.1 12.3 35.8 19 56.6 19 51.9 0 94.1-42.2 94.1-94.1 0.1-35.5-20-67.3-50.7-82.9zM609.5 442.4c-25.9 0-47-21.1-47-47s21.1-47 47-47c25.9 0 47 21.1 47 47s-21.1 47-47 47z" />
<glyph unicode="&#xe657;" glyph-name="slack" d="M1016.6 411.6c-15.4 47.6-66.5 73.6-114.1 58.1l-91.2-29.7c-20.2 62.3-41.7 128.4-61.9 190.6 55.5 18 91.2 29.7 91.2 29.7 47.6 15.4 73.6 66.5 58.1 114.1-15.4 47.6-66.5 73.6-114.1 58.1l-91.2-29.7c-18 55.5-29.7 91.2-29.7 91.2-15.4 47.5-66.4 73.6-114 58.1s-73.6-66.5-58.1-114.1l29.7-91.2-190.6-61.9c-18 55.5-29.6 91.2-29.6 91.2-15.5 47.6-66.6 73.6-114.1 58.1-47.6-15.4-73.6-66.5-58.1-114l29.7-91.3-94.1-30.6c-44.5-16.1-69.4-64-56.2-110.2 13.8-48 64.9-77.3 112.1-62 0.4 0.1 37.4 12.1 94.1 30.6l61.9-190.6-94.1-30.6c-44.4-16.1-69.4-64-56.2-110.2 13.8-48 64.9-77.4 112.1-62 0.4 0.1 37.4 12.1 94.2 30.6l30.6-94.1c16.1-44.4 64-69.4 110.2-56.2 48 13.8 77.4 64.9 62 112.1-0.1 0.4-12.1 37.4-30.6 94.1 62.3 20.2 128.4 41.7 190.6 61.9l30.6-94.1c16.1-44.4 64-69.4 110.2-56.2 48 13.8 77.4 64.9 62 112.1-0.1 0.4-12.1 37.4-30.6 94.1 55.5 18 91.2 29.7 91.2 29.7 47.3 15.6 73.4 66.7 58 114.3zM448.5 322.2c-20.3 62.3-41.7 128.4-61.9 190.6 62.3 20.2 128.4 41.7 190.6 61.9l61.9-190.6-190.6-61.9z" />
<glyph unicode="&#xe658;" glyph-name="slack-round" d="M425 496.4c13.3-40.9 27.3-84.3 40.7-125.3l125.3 40.7-40.7 125.3c-40.9-13.3-84.4-27.5-125.3-40.7zM512 960c-282.8 0-512-229.2-512-512s229.2-512 512-512 512 229.2 512 512c0 282.8-229.2 512-512 512zM801 354.8c0 0-23.5-7.7-59.9-19.5 12.2-37.3 20-61.6 20.1-61.8 10.1-31-9.2-64.6-40.8-73.7-30.4-8.7-61.9 7.8-72.4 36.9l-20.1 61.8c-40.9-13.3-84.3-27.4-125.3-40.7 12.2-37.3 20-61.6 20.1-61.8 10.1-31-9.2-64.6-40.8-73.7-30.4-8.7-61.9 7.8-72.4 36.9l-20.1 61.8c-37.3-12.2-61.7-20-61.9-20.1-31-10.1-64.6 9.2-73.7 40.7-8.7 30.4 7.8 61.8 36.9 72.4l61.9 20.1-40.7 125.3c-37.3-12.2-61.6-20-61.9-20.1-31-10.1-64.6 9.2-73.7 40.7-8.7 30.4 7.7 61.8 36.9 72.4l61.9 20.1-19.5 60c-10.2 31.2 6.9 64.8 38.2 74.9 31.2 10.2 64.8-6.9 75-38.2 0 0 7.6-23.5 19.5-59.9l125.3 40.7-19.6 60.1c-10.2 31.3 6.9 64.8 38.2 75s64.8-7 74.9-38.2c0 0 7.7-23.5 19.5-59.9l59.9 19.5c31.3 10.2 64.9-6.9 75-38.2 10.2-31.3-6.9-64.9-38.2-75 0 0-23.5-7.7-59.9-19.5 13.3-40.9 27.4-84.3 40.7-125.3l59.9 19.5c31.3 10.2 64.9-6.9 75-38.2 10.2-31.2-7-64.8-38-75z" />
<glyph unicode="&#xe659;" glyph-name="slack-square" d="M426.3 495.3c13.3-40.8 27.3-84.3 40.7-125.2l125.2 40.6-40.7 125.3c-40.9-13.3-84.3-27.4-125.2-40.7zM832 959.7h-640c-106 0-192-86-192-192v-640c0-106 86-192 192-192h640c106 0 192 86 192 192v640c0 106.1-86 192-192 192zM802 353.8c0 0-23.4-7.7-59.9-19.5 12.2-37.2 20-61.5 20.1-61.8 10.1-31-9.2-64.6-40.7-73.6-30.3-8.7-61.8 7.7-72.4 36.9l-20.1 61.8c-40.9-13.3-84.3-27.4-125.2-40.6 12.2-37.2 20-61.5 20.1-61.8 10.1-31-9.2-64.6-40.7-73.6-30.3-8.7-61.8 7.7-72.4 36.9l-20.1 61.8c-37.3-12.1-61.6-20-61.9-20.1-31-10.1-64.6 9.2-73.6 40.7-8.7 30.3 7.8 61.8 36.9 72.4l61.8 20.1-40.7 125.2c-37.2-12.1-61.5-20-61.8-20.1-31-10-64.6 9.2-73.6 40.7-8.7 30.3 7.7 61.8 36.9 72.4l61.8 20.1-19.5 60c-10.2 31.2 6.9 64.7 38.2 74.9 31.2 10.2 64.8-6.9 74.9-38.2 0 0 7.6-23.4 19.4-59.9l125.3 40.5-19.5 59.9c-10.2 31.3 6.9 64.7 38.2 74.9s64.8-7 74.9-38.2c0 0 7.7-23.4 19.5-59.9l59.9 19.5c31.3 10.2 64.8-6.9 74.9-38.2 10.2-31.3-6.9-64.8-38.2-74.9 0 0-23.4-7.7-59.9-19.5 13.3-40.8 27.4-84.3 40.7-125.2l59.9 19.5c31.3 10.2 64.8-6.9 74.9-38.2 10.1-31.1-7-64.6-38.1-74.9z" />
<glyph unicode="&#xe65a;" glyph-name="askfm" d="M963.2 924c-126.3 18.7-248.3 45.1-376.8 27.8-194.8-26.4-375.7-133-475.9-304.4-48.8-83.5-77.9-178.1-84.8-274.5-8.2-116.4-15-243.1 63-339.7 66.4-82.3 186.3-108.4 287.4-85.1 59.1 13.6 108.3 37.7 151.1 81.2 22.7 23.1 102.1 99 102.1 134.9 0 0-13.5-169.6-15.4-198.8l20.2 2.9c54.8-1.2 231-5.8 231-5.8 1.9 23.1 21.6 217.6 27.9 287.7 4.8 53.5 96.4 666.2 102 665l-31.8 8.8zM683.2 684.3c-5.5-11.5-21.3-119.7-28.9-144.3-16.3-53.2-21-110.2-45.4-162.5-39.8-85.1-70.1-204.8-179.8-212.8-119.9-8.8-129.9 120.9-118.4 210.8 6.9 53.8 5.8 98.3 28.7 147.4 21.8 46.7 50.4 94.4 84.5 133.3 33 37.7 88.1 74.9 137.9 86 31.5 7 105.9-2.9 127-8.7l-5.6-49.2z" />
<glyph unicode="&#xe65b;" glyph-name="askfm-round" d="M569.2 279.4c0.1 0.8 0.2 1.6 0.2 2.4 0 0-0.1-0.9-0.2-2.4zM530.8 612.7c-28.5-6.4-60-27.7-78.9-49.2-19.5-22.3-35.9-49.6-48.3-76.3-13.1-28.1-12.5-53.6-16.4-84.4-6.6-51.5-0.9-125.7 67.7-120.7 62.7 4.6 80.1 73.1 102.8 121.8 14 29.9 16.6 62.6 26 93 4.3 14.1 13.4 76 16.5 82.6l3.2 28.2c-12.1 3.3-54.6 9-72.6 5zM512 959.9c-282.7 0-512-229.3-512-512s229.2-512 512-512 512 229.2 512 512c0 282.8-229.2 512-512 512zM720.2 331c-3.6-40.1-14.9-151.5-16-164.7 0 0-100.8 2.6-132.1 3.3l-11.6-1.7c1 15.2 7.4 96.5 8.6 111.4-3.1-21.3-45.7-62.1-58.2-74.9-24.5-24.9-52.6-38.7-86.4-46.5-57.8-13.3-126.4 1.6-164.3 48.7-44.6 55.3-40.7 127.8-36 194.5 3.9 55.2 20.6 109.3 48.5 157.1 57.3 98.1 160.7 159.2 272.1 174.3 73.5 9.9 143.2-5.2 215.5-15.9l18.2-5c-3.2 0.8-55.6-350-58.3-380.6z" />
<glyph unicode="&#xe65c;" glyph-name="askfm-square" d="M530.6 613.1c-28.5-6.3-60-27.6-78.9-49.2-19.5-22.3-35.9-49.5-48.4-76.2-13.1-28.1-12.5-53.5-16.4-84.3-6.6-51.4-0.9-125.6 67.8-120.6 62.8 4.6 80.1 73 102.9 121.7 14 29.9 16.7 62.5 26 93 4.3 14.1 13.4 76 16.5 82.5l3.2 28.1c-12.1 3.4-54.7 9-72.7 5zM569 280.1c0.1 0.8 0.2 1.6 0.2 2.4 0 0-0.1-0.8-0.2-2.4zM832 959.7h-640c-106 0-192-86-192-192v-640c0-106 86-192 192-192h640c106 0 192 86 192 192v640c0 106.1-86 192-192 192zM720.1 331.7c-3.6-40.1-14.9-151.4-16-164.6 0 0-100.8 2.6-132.2 3.3l-11.6-1.7c1 15.2 7.4 96.4 8.6 111.4-3.1-21.3-45.7-62.1-58.2-74.8-24.5-24.9-52.7-38.7-86.5-46.4-57.9-13.3-126.5 1.6-164.5 48.7-44.6 55.3-40.8 127.7-36.1 194.3 3.9 55.1 20.6 109.3 48.5 157 57.3 98 160.9 159 272.4 174.1 73.5 9.9 143.4-5.2 215.7-15.9l18.2-5c-3.1 0.7-55.5-349.8-58.3-380.4z" />
<glyph unicode="&#xe65d;" glyph-name="meetup" d="M1021.5 93.5c-12.9 82.1-164.7 18.9-174.1 108.8-13.3 127.4 176.4 402.1 161.4 508.9-13.3 95.9-78.3 116-134.5 117.1-54.6 0.9-69-7.7-87.5-18.5-10.8-6.2-26-18.5-47.3 1.7-14.2 13.5-23.7 22.8-38.5 34.8-7.7 6-19.8 13.8-40.2 16.8-20.2 3-46.7 0-63.4-7.1-16.8-7.3-29.8-19.8-43.6-31.8-13.7-12-48.8-50.9-81.2-36.5-14.2 6.2-62 30-96.6 44.8-66.4 28.8-162.5-17.9-197.1-79.3-51.6-91.3-153-450.7-168.5-498-34.4-106.4 43.9-193 149.2-188 44.7 2.2 74.4 18.3 102.5 69.6 16.3 29.5 169.1 428.8 180.6 448.1 8.4 13.7 35.9 32 59.1 20.2 23.4-12 28.1-36.9 24.7-60.4-5.8-38-113.4-281.8-117.8-309.2-6.9-46.9 15.3-72.9 64.1-75.4 33.3-1.7 66.6 10.1 92.8 59.9 14.8 27.7 184.9 368.4 199.9 391.1 16.6 24.9 29.9 33.1 46.9 32.2 13.1-0.6 34-4.1 28.8-43.2-5.2-38.3-142.1-288.1-156.3-349.3-19.4-81.9 25.6-164.7 99.5-201 47.3-23.2 253.8-62.7 237.1 43.7z" />
<glyph unicode="&#xe65e;" glyph-name="meetup-round" d="M512.5 959.5c-282.8 0-512-229.2-512-512s229.2-512 512-512 512 229.2 512 512c0 282.8-229.2 512-512 512zM685.3 171.5c-52.5 25.8-84.5 84.7-70.7 142.9 10.1 43.5 107.4 221.1 111.1 248.3 3.7 27.8-11.2 30.3-20.5 30.7-12.1 0.6-21.5-5.2-33.3-22.9-10.7-16.1-131.5-258.3-142.1-278-18.6-35.4-42.3-43.8-65.9-42.6-34.7 1.8-50.5 20.3-45.5 53.6 3.1 19.5 79.6 192.8 83.7 219.8 2.4 16.7-0.9 34.4-17.6 42.9-16.5 8.4-36-4.6-42-14.4-8.2-13.7-116.8-297.6-128.3-318.5-20-36.5-41.1-47.9-72.8-49.5-74.8-3.6-130.5 58-106 133.6 11 33.6 83.1 289.1 119.7 354 24.6 43.6 92.9 76.8 140.1 56.4 24.6-10.5 58.6-27.4 68.6-31.8 23-10.2 48 17.4 57.7 25.9 9.8 8.5 19 17.4 31 22.6 11.9 5 30.7 7.2 45.1 5 14.5-2.1 23.1-7.7 28.6-11.9 10.5-8.5 17.3-15.1 27.4-24.7 15.1-14.4 25.9-5.6 33.6-1.2 13.1 7.7 23.4 13.8 62.2 13.2 39.9-0.8 86.1-15.1 95.6-83.2 10.7-75.9-124.1-271.2-114.7-361.8 6.7-63.9 114.5-19 123.7-77.3 11.7-75.6-135-47.6-168.7-31.1z" />
<glyph unicode="&#xe65f;" glyph-name="meetup-square" d="M832 959.7h-640c-106 0-192-86-192-192v-640c0-106 86-192 192-192h640c106 0 192 86 192 192v640c0 106.1-86 192-192 192zM686.7 172.3c-52.6 25.8-84.5 84.7-70.8 143 10.1 43.5 107.4 221.3 111.1 248.5 3.7 27.8-11.2 30.3-20.5 30.7-12.1 0.6-21.5-5.2-33.4-22.9-10.7-16.2-131.6-258.5-142.1-278.3-18.6-35.4-42.3-43.8-66-42.6-34.7 1.8-50.5 20.3-45.6 53.6 3.1 19.5 79.6 193 83.8 220 2.4 16.7-0.9 34.4-17.6 43-16.5 8.4-36.1-4.6-42-14.4-8.2-13.7-116.8-297.8-128.4-318.8-20-36.5-41.1-48-72.9-49.5-74.9-3.6-130.6 58.1-106.1 133.8 11 33.7 83.1 289.4 119.8 354.3 24.6 43.7 92.9 76.9 140.2 56.4 24.6-10.5 58.6-27.5 68.7-31.9 23-10.2 48 17.4 57.7 26 9.8 8.5 19.1 17.4 31 22.6 11.9 5.1 30.7 7.2 45.1 5.1 14.5-2.1 23.1-7.7 28.6-12 10.5-8.5 17.3-15.2 27.4-24.8 15.1-14.4 26-5.6 33.6-1.2 13.2 7.7 23.4 13.8 62.2 13.2 40-0.8 86.2-15.1 95.6-83.3 10.7-76-124.2-271.4-114.8-362.1 6.7-64 114.6-19 123.8-77.4 12.1-75.6-134.7-47.5-168.4-31z" />
<glyph unicode="&#xe660;" glyph-name="weibo" d="M826.9 445.1c-17.5 11-37 19.9-58.7 26.8-4.6 1.5-7.8 2.7-9.7 3.4-1.9 0.8-4.2 2.2-6.8 4.3-2.7 2.1-3.5 4.5-2.6 7.1 1 2.7 1.8 6.5 2.6 11.4 17.1 43.7 17.1 77.5 0 101.4-17.5 23.2-46.5 34.8-87.2 34.8-40.6 0-87.4-11.2-140.1-33.6l-3.4-1.1c-2.3-0.8-4.8-1.4-7.7-2s-5.6-0.7-8.3-0.3c-2.6 0.4-4.6 1.7-5.7 4s-0.9 6.1 0.6 11.4c17.1 55.1 13.3 94.8-11.4 119.1-28.1 28.1-74.9 29.4-140.4 4-65.5-25.5-130.4-70.3-194.6-134.5-48.6-48.6-86.1-97.6-112.5-147-26.5-49.5-39.6-96-39.6-139.7 0-41 12.3-78.9 37-113.7s57.3-63.4 97.7-86c40.4-22.6 86.1-40.3 137-53s103.1-19.1 156.7-19.1c53.6 0 104.9 5.9 154.1 17.7s92.1 27.5 128.8 47.3c36.7 19.7 68.7 42.1 96 66.9 27.4 24.9 48 50.9 62.1 78.1s21.1 53.6 21.1 79.5c0 24.3-6.4 46.4-19.4 66.4-13 19.9-28.2 35.4-45.6 46.4zM640.9 183.9c-55.6-45-125.8-71.9-210.5-80.6-55.5-5.3-107.6-1.3-156.4 12s-88.4 34-118.8 62.1c-30.4 28.1-47.3 60.4-50.7 96.9-5.3 55.5 19.8 105.7 75.5 150.7 55.6 45 125.8 71.9 210.5 80.6 55.5 5.3 107.6 1.3 156.4-12s88.4-34 118.8-62.1c30.4-28.1 47.3-60.4 50.7-96.9 5.3-55.5-19.9-105.7-75.5-150.7zM446.9 420c-40.3 10.3-80.2 6.6-119.9-10.8-39.7-17.5-68.5-43.9-86.3-79.2-17.9-36.1-19.1-71.7-3.7-106.8s43.4-59.2 84-72.1c42.2-13.7 84.7-11.4 127.6 6.9 42.9 18.2 72.9 46.7 90 85.5 17.1 38 16.6 74.2-1.4 108.5-18.1 34.3-48.2 57-90.3 68zM385.9 235.4c-8.4-12.9-20.2-21.9-35.6-27.1-15.4-5.1-29.5-4.7-42.4 1.4s-21.1 15.7-24.5 28.8c-3.4 13.1-1 26.1 7.4 39 8 12.5 19.4 21.3 34.2 26.2s28.7 4.8 41.6-0.6c13.3-5.7 21.8-15.2 25.6-28.5 3.8-13.1 1.7-26.2-6.3-39.2zM439.5 304.4c-2.7-4.9-6.8-8.5-12.5-10.6s-11.2-2.2-16.5-0.3c-11.4 5.3-13.9 13.9-7.4 25.6 2.7 4.9 6.7 8.5 12.2 10.6s10.9 2.2 16.2 0.3c4.9-1.9 8.3-5.4 10-10.5s1-10.2-2-15.1zM815.5 554.2c4.2-8.2 10.6-13.8 19.4-16.8 8.7-2.7 17.2-1.9 25.3 2.3 8.2 4.2 13.8 10.6 16.8 19.4 7.2 21.3 8.5 43.6 3.7 66.9-4.7 23.4-15.1 44-31 61.8-16 17.9-35.1 30.3-57.5 37.3s-45 8.1-67.8 3.1c-9.1-1.9-16.2-6.7-21.1-14.5s-6.4-16.2-4.5-25.3c1.5-9.1 6.3-16.1 14.2-21.1 8-4.9 16.5-6.5 25.6-4.6 23.9 4.9 44.2-1.7 61-19.9 16.7-18.2 21.3-39.3 13.7-63.2-2.8-8.8-2-17.2 2.2-25.4zM1016.9 653.9c-9.7 48-31.1 90.3-64.1 126.8-33 36.8-72.5 62.4-118.5 76.6s-92.3 16.4-139 6.6c-10.6-2.3-18.9-7.9-24.8-16.8s-7.7-18.7-5.4-29.3c2.3-10.6 8-18.9 17.1-24.8s19-7.7 29.6-5.4c33.1 6.8 65.9 5.2 98.6-4.8 32.7-10.1 60.8-28.2 84.3-54.4 23.5-25.8 38.7-55.8 45.6-90 6.8-34.2 4.9-66.8-5.7-98-3-10.3-2.1-20.1 2.9-29.6 4.9-9.5 12.5-15.9 22.8-19.4 10.3-3.4 20.1-2.7 29.6 2.3 9.5 4.9 16 12.5 19.4 22.8 14.7 43.5 17.3 89.4 7.6 137.4z" />
<glyph unicode="&#xe661;" glyph-name="weibo-round" d="M623.2 437.3c-22.9 21.2-52.7 36.8-89.5 46.8s-76 13-117.8 9c-63.8-6.6-116.6-26.8-158.5-60.7s-60.8-71.7-56.9-113.5c2.6-27.5 15.3-51.8 38.2-73s52.7-36.8 89.5-46.8c36.7-10 76-13 117.8-9 63.8 6.6 116.6 26.8 158.5 60.7s60.8 71.7 56.9 113.5c-2.6 27.5-15.3 51.8-38.2 73zM527.5 295.7c-12.9-29.2-35.5-50.7-67.8-64.4-32.3-13.8-64.3-15.5-96.1-5.2-30.6 9.7-51.7 27.9-63.3 54.3s-10.7 53.3 2.8 80.4c13.4 26.6 35.1 46.5 65 59.7 29.9 13.1 59.9 15.9 90.3 8.1 31.7-8.3 54.4-25.4 68-51.2s14-53.1 1.1-81.7zM398 340.6c-9.7 4.1-20.2 4.1-31.3 0.5-11.1-3.7-19.7-10.3-25.8-19.7-6.3-9.7-8.1-19.5-5.6-29.4 2.6-9.9 8.7-17.1 18.4-21.7s20.3-4.9 31.9-1.1c11.6 3.9 20.5 10.7 26.8 20.4 6 9.8 7.6 19.7 4.7 29.5-2.7 10-9.1 17.2-19.1 21.5zM446.9 360.8c-4 1.4-8.1 1.4-12.2-0.2s-7.2-4.3-9.2-8c-4.9-8.8-3-15.3 5.6-19.3 4-1.4 8.1-1.4 12.4 0.2s7.4 4.3 9.4 8c2.3 3.7 2.8 7.5 1.5 11.4s-3.8 6.5-7.5 7.9zM511.5 959.5c-282.8 0-512-229.2-512-512s229.2-512 512-512 512 229.2 512 512c0 282.8-229.2 512-512 512zM777.7 302.7c-10.6-20.5-26.1-40.1-46.8-58.8-20.6-18.7-44.7-35.6-72.3-50.4-27.6-14.9-59.9-26.7-97-35.6-37-8.9-75.7-13.3-116-13.3s-79.7 4.8-118 14.4c-38.3 9.6-72.7 22.9-103.2 39.9-30.4 17-55 38.6-73.6 64.8s-27.9 54.8-27.9 85.6c0 32.9 9.9 67.9 29.8 105.2 19.9 37.2 48.1 74.1 84.7 110.7 48.3 48.4 97.2 82.1 146.5 101.3 49.3 19.1 84.6 18.2 105.7-3 18.6-18.3 21.5-48.2 8.6-89.7-1.1-4-1.3-6.9-0.5-8.6s2.3-2.7 4.3-3c2-0.3 4.1-0.2 6.2 0.2 2.2 0.5 4.1 0.9 5.8 1.5l2.6 0.8c39.7 16.9 74.9 25.3 105.5 25.3s52.5-8.7 65.7-26.2c12.9-18 12.9-43.5 0-76.4-0.6-3.7-1.2-6.6-2-8.6-0.7-2-0.1-3.8 2-5.3 2-1.6 3.7-2.6 5.1-3.2 1.4-0.5 3.8-1.4 7.3-2.6 16.3-5.2 31-11.9 44.2-20.2 13.1-8.3 24.5-20 34.3-34.9 9.8-15.1 14.6-31.7 14.6-50 0.2-19.5-5-39.4-15.6-59.9zM724 596.4c-12.7 13.7-27.9 18.7-45.9 15-6.9-1.4-13.3-0.2-19.3 3.5-5.9 3.8-9.6 9-10.7 15.9-1.4 6.9-0.3 13.2 3.4 19.1s9 9.5 15.9 10.9c17.2 3.8 34.2 2.9 51.1-2.3 16.9-5.3 31.2-14.6 43.3-28.1 12-13.4 19.8-28.9 23.3-46.5 3.6-17.6 2.6-34.3-2.8-50.4-2.3-6.6-6.5-11.4-12.7-14.6-6.1-3.2-12.5-3.8-19.1-1.7-6.6 2.3-11.4 6.5-14.6 12.7s-3.8 12.5-1.7 19.1c5.9 17.8 2.4 33.7-10.2 47.4zM867.3 484.1c-7.2-3.8-14.5-4.3-22.3-1.7s-13.5 7.5-17.2 14.6c-3.8 7.2-4.4 14.5-2.2 22.3 8 23.5 9.4 48.1 4.3 73.8-5.2 25.8-16.6 48.4-34.3 67.8-17.7 19.7-38.9 33.4-63.5 41-24.6 7.5-49.3 8.7-74.2 3.6-8-1.7-15.4-0.4-22.3 4.1-6.9 4.4-11.1 10.7-12.9 18.7-1.7 8-0.4 15.4 4.1 22.1 4.4 6.7 10.7 10.9 18.7 12.7 35.2 7.4 70 5.7 104.7-5 34.6-10.7 64.4-30 89.2-57.7 24.8-27.5 41-59.4 48.3-95.5 7.3-36.2 5.3-70.7-5.7-103.5-2.6-7.9-7.5-13.6-14.7-17.3z" />
<glyph unicode="&#xe662;" glyph-name="weibo-square" d="M447.9 360.9c-4 1.4-8 1.4-12.2-0.2-4.1-1.6-7.1-4.3-9.2-8-4.9-8.8-3-15.3 5.6-19.3 4-1.4 8.1-1.4 12.4 0.2s7.4 4.3 9.4 8c2.3 3.7 2.8 7.5 1.5 11.4-1.2 3.8-3.8 6.5-7.5 7.9zM624.1 437.3c-22.9 21.1-52.6 36.7-89.3 46.7s-75.9 13-117.6 9c-63.7-6.5-116.5-26.8-158.3-60.7-42-33.8-60.9-71.6-56.9-113.3 2.6-27.5 15.3-51.8 38.1-72.9 22.9-21.1 52.6-36.7 89.3-46.7s75.9-13 117.6-9c63.7 6.5 116.5 26.8 158.3 60.7s60.8 71.7 56.8 113.4c-2.5 27.3-15.2 51.6-38 72.8zM528.5 295.8c-12.9-29.2-35.4-50.7-67.7-64.3-32.3-13.8-64.2-15.5-96-5.2-30.5 9.7-51.6 27.8-63.2 54.3-11.6 26.4-10.7 53.2 2.8 80.4 13.4 26.6 35 46.4 64.9 59.6 29.9 13.1 59.9 15.9 90.2 8.1 31.7-8.3 54.3-25.4 67.9-51.2 13.6-25.9 13.9-53.1 1.1-81.7zM832 959.7h-640c-106 0-192-86-192-192v-640c0-106 86-192 192-192h640c106 0 192 86 192 192v640c0 106.1-86 192-192 192zM778.3 302.8c-10.6-20.5-26.1-40-46.7-58.8-20.5-18.7-44.6-35.5-72.2-50.4s-59.9-26.7-96.9-35.6c-37-8.9-75.6-13.3-115.9-13.3s-79.6 4.8-117.8 14.4c-38.3 9.6-72.6 22.9-103 39.9s-54.9 38.5-73.5 64.7c-18.6 26.2-27.8 54.7-27.8 85.6 0 32.9 9.9 67.9 29.8 105.1s48.1 74.1 84.6 110.6c48.3 48.3 97.1 82 146.3 101.2 49.3 19.1 84.5 18.1 105.6-3 18.6-18.3 21.4-48.2 8.6-89.6-1.1-4-1.3-6.8-0.5-8.6 0.8-1.7 2.3-2.7 4.3-3s4.1-0.2 6.2 0.2c2.2 0.5 4.1 0.9 5.8 1.5l2.6 0.8c39.6 16.9 74.8 25.3 105.4 25.3s52.4-8.7 65.6-26.2c12.9-18 12.9-43.4 0-76.3-0.6-3.7-1.2-6.5-2-8.6-0.7-2-0.1-3.8 2-5.3 2-1.6 3.7-2.6 5.1-3.2 1.4-0.5 3.8-1.4 7.3-2.6 16.3-5.2 31-11.9 44.1-20.2s24.5-19.9 34.3-34.9c9.8-15.1 14.6-31.7 14.6-50 0-19.4-5.3-39.2-15.9-59.7zM724.8 596.3c-12.6 13.7-27.9 18.7-45.9 15-6.8-1.4-13.2-0.2-19.3 3.5-5.9 3.8-9.6 9-10.7 15.9-1.4 6.8-0.3 13.2 3.4 19 3.7 5.9 9 9.5 15.9 10.9 17.1 3.8 34.1 2.9 51-2.3 16.8-5.3 31.2-14.6 43.2-28.1 12-13.4 19.8-28.9 23.3-46.5 3.6-17.5 2.6-34.3-2.8-50.4-2.3-6.6-6.5-11.4-12.6-14.6s-12.5-3.8-19-1.7c-6.6 2.3-11.4 6.5-14.6 12.6-3.2 6.2-3.8 12.5-1.7 19.1 5.8 18 2.3 33.9-10.2 47.6zM882.5 501.3c-2.6-7.8-7.4-13.5-14.6-17.2-7.1-3.8-14.5-4.3-22.3-1.7-7.7 2.6-13.5 7.5-17.1 14.6-3.8 7.1-4.4 14.5-2.2 22.3 8 23.5 9.4 48 4.3 73.8-5.2 25.7-16.6 48.3-34.3 67.7-17.7 19.7-38.8 33.3-63.4 40.9-24.6 7.5-49.3 8.7-74.1 3.6-8-1.7-15.4-0.4-22.3 4.1-6.8 4.4-11.1 10.7-12.9 18.7-1.7 8-0.4 15.4 4.1 22.1 4.4 6.7 10.7 10.9 18.7 12.6 35.1 7.4 69.9 5.7 104.5-5s64.3-30 89.1-57.7c24.8-27.5 40.9-59.3 48.2-95.4s5.3-70.7-5.7-103.4zM399.1 340.7c-9.7 4.1-20.2 4.1-31.3 0.5-11.1-3.7-19.7-10.3-25.7-19.7-6.3-9.7-8.1-19.5-5.6-29.4 2.6-9.9 8.7-17.1 18.4-21.7s20.3-4.9 31.9-1.1c11.6 3.9 20.5 10.7 26.8 20.4 6 9.8 7.6 19.6 4.7 29.5-2.8 10-9.2 17.2-19.2 21.5z" />
<glyph unicode="&#xe663;" glyph-name="qzone" d="M1020 560.9c-2.6 7.8-9.7 13.4-18 14.2l-326.4 30.3-141.7 312c-3.2 7.8-10.9 12.9-19.5 12.9-8.5 0-16.2-5.1-19.5-12.9l-146-305.3-324.3-37c-8.4-0.8-15.5-6.4-18.1-14.4-2.6-7.9 0-16.6 6.4-22l239.6-219.7-59-332c-1.9-8.1 1.3-16.6 8.2-21.4 3.7-2.6 8-3.9 12.4-3.9 3.8 0 7.5 1 10.9 3l291.6 167.5 287.3-169.7c7.2-2.1 16.2-1.8 23 3 6.8 4.7 10.2 13 8.5 21.1l-43.4 245.8c11.5 5.3 45.2 20.2 62.9 40.6-28.9-11.4-39.8-14.4-68.7-19.9v-0.1c-193-37.1-489.1-5.6-499-5.1l324.8 237.8c-109.9 20.2-365.2 28.2-380.9 28.7-2-0.3-2.4-0.4-0.8 0 0 0 0.3 0 0.8 0 13.3 2.1 346.5 56.8 539.8 2.2l-327.3-229.4c0 0 252.2-24.5 341.1-14.2l-6 46 237.3 220c4.2 5.4 6.6 14 4 21.9z" />
<glyph unicode="&#xe664;" glyph-name="qzone-round" d="M310.5 523c-0.4 0-0.6 0-0.6 0-1.1-0.3-0.8-0.2 0.6 0zM512.1 960.2c-282.8 0-512-229.2-512-512s229.2-512 512-512 512 229.2 512 512c0 282.8-229.2 512-512 512zM874 540.7l-170.3-158 4.3-33c-63.8-7.4-244.8 10.2-244.8 10.2l234.8 164.7c-138.8 39.2-377.9-0.1-387.5-1.6 11.3-0.4 194.5-6.1 273.4-20.6l-233.1-170.8c7.1-0.4 219.6-23 358.2 3.7v0.1c20.7 4 28.6 6.1 49.3 14.3-12.7-14.7-36.9-25.4-45.2-29.2l31.2-176.5c1.2-5.8-1.2-11.8-6.1-15.2s-11.3-3.7-16.5-2.2l-206.2 121.9-209.3-120.3c-2.4-1.4-5.1-2.2-7.8-2.2-3.2 0-6.2 0.9-8.9 2.8-5 3.4-7.2 9.6-5.9 15.4l42.4 238.5-172 157.8c-4.6 3.9-6.5 10.1-4.6 15.8s7 9.8 13 10.3l232.8 26.6 104.8 219.3c2.4 5.6 7.9 9.3 14 9.3 6.2 0 11.7-3.7 14-9.3l101.7-224.1 234.3-21.8c6-0.6 11.1-4.6 12.9-10.2 1.8-5.7 0.1-11.9-2.9-15.7z" />
</font>
</defs>
</svg>
