<?xml version="1.0" standalone="no"?>
<!DOCTYPE svg PUBLIC "-//W3C//DTD SVG 1.1//EN" "http://www.w3.org/Graphics/SVG/1.1/DTD/svg11.dtd" >
<svg xmlns="http://www.w3.org/2000/svg">
<metadata>Generated by IcoMoon</metadata>
<defs>
<font id="thegem-shortcodes" horiz-adv-x="1024">
<font-face units-per-em="1024" ascent="960" descent="-64" />
<missing-glyph horiz-adv-x="1024" />
<glyph unicode="&#x20;" horiz-adv-x="512" d="" />
<glyph unicode="&#xe600;" glyph-name="alert-box" d="M192 832v-768h640v768h-640zM256 768h512v-640h-512v640zM320 704v-224h384v224h-384zM384 640h256v-96h-256v96zM320 384v-64h384v64h-384zM320 256v-64h384v64h-384z" />
<glyph unicode="&#xe601;" glyph-name="button" d="M183.25 928c-65.468 0-119.25-53.782-119.25-119.25v-401.5c0-65.468 53.782-119.25 119.25-119.25h136.75v64h-136.75c-30.852 0-55.25 24.398-55.25 55.25v401.5c0 30.852 24.398 55.25 55.25 55.25h657.5c30.852 0 55.25-24.398 55.25-55.25v-200.75h64v200.75c0 65.468-53.782 119.25-119.25 119.25h-657.5zM544.125 768c-52.639 0-96-43.361-96-96l-0.125-309.062-66.813-86.375c-40.888-52.877-38.564-127.857 5.563-178.062l75.875-86.313c42.511-48.409 103.835-76.187 168.25-76.187h169.125c123.339 0 224 100.661 224 224v288c0 52.639-43.361 96-96 96-17.163 0-33.116-4.962-47.125-13-17.098 26.878-46.965 45-80.875 45-19.428 0-34.813-10.776-50-20.875-16.464 29.503-42.117 52.875-78 52.875-11.211 0-21.835-2.333-31.875-5.938v69.938c0 52.639-43.361 96-96 96zM544.125 704c18.081 0 32-13.919 32-32v-158.75c-0.006-0.426-0.125-0.823-0.125-1.25v-96h64.125v96.625c0.339 17.754 14.018 31.375 31.875 31.375 18.081 0 32-13.919 32-32v-96h64v64c0 18.081 13.919 32 32 32s32-13.919 32-32v-64h64v32c0 18.081 13.919 32 32 32s32-13.919 32-32v-288c0-88.757-71.243-160-160-160h-169.125c-46.049 0-89.803 19.776-120.188 54.375l-75.875 86.375c-24.162 27.49-25.408 67.646-3 96.625l16.312 21.062v-34.438h64v160h-0.125l0.125 288c0 18.081 13.919 32 32 32z" />
<glyph unicode="&#xe602;" glyph-name="clients" d="M512 704c-88 0-160-72-160-160 0-48.5 22.625-91.625 57-121-34.125-17.875-64-44.875-85-77-11.375 16.5-26.375 31.75-43 43 23.75 23.25 39 55.375 39 91 0 70.375-57.625 128-128 128s-128-57.625-128-128c0-35.625 15.25-67.75 39-91-42.625-28.875-71-78.125-71-133h64c0 53 43 96 96 96s96-43 96-96v-32h64c0 88.125 71.875 160 160 160s160-71.875 160-160h64v32c0 53 43 96 96 96s96-43 96-96h64c0 54.875-28.375 104.125-71 133 23.75 23.25 39 55.375 39 91 0 70.375-57.625 128-128 128s-128-57.625-128-128c0-35.625 15.25-67.75 39-91-16.625-11.25-31.625-26.5-43-43-21 32.125-50.875 59.125-85 77 34.375 29.375 57 72.5 57 121 0 88-72 160-160 160zM512 640c53.375 0 96-42.625 96-96s-42.625-96-96-96c-53.375 0-96 42.625-96 96s42.625 96 96 96zM192 544c35.75 0 64-28.25 64-64s-28.25-64-64-64c-35.75 0-64 28.25-64 64s28.25 64 64 64zM832 544c35.75 0 64-28.25 64-64s-28.25-64-64-64c-35.75 0-64 28.25-64 64s28.25 64 64 64z" />
<glyph unicode="&#xe603;" glyph-name="countdown" d="M480 832v-160h64v90c161.25-16.625 288-148.25 288-314 0-177.125-142.875-320-320-320s-320 142.875-320 320c0 102.875 47.875 194.375 123 253l-39 50c-90.125-70.25-148-180-148-303 0-211.75 172.25-384 384-384s384 172.25 384 384c0 211.75-172.25 384-384 384zM343 663l-46-46 192-192c5.75-5.75 14.125-9 23-9 17.625 0 32 14.375 32 32 0 8.875-3.25 17.25-9 23z" />
<glyph unicode="&#xe604;" glyph-name="counter" d="M64 480h416v416h-416v-416zM128 832h288v-288h-288v288zM544 896v-416h416v416h-416zM896 544h-288v288h288v-288zM64 0h416v416h-416v-416zM128 352h288v-288h-288v288zM544 0h416v416h-416v-416zM608 352h288v-288h-288v288zM233.6 726.4h25.6v-118.4h54.4v156.8h-80zM729.6 723.2c3.2 3.2 9.6 3.2 12.8 3.2 6.4 0 9.6 0 12.8-3.2s3.2-6.4 3.2-9.6c0-3.2 0-6.4-3.2-9.6s-6.4-6.4-9.6-12.8l-54.4-51.2v-32h124.8v41.6h-54.4l22.4 19.2c9.6 9.6 19.2 19.2 22.4 25.6s6.4 16 6.4 25.6c0 9.6-3.2 19.2-9.6 25.6s-12.8 12.8-22.4 16c-9.6 3.2-19.2 6.4-32 6.4-16 0-28.8-3.2-41.6-9.6s-19.2-16-25.6-25.6l38.4-19.2c3.2 3.2 6.4 6.4 9.6 9.6zM304 224l28.8 28.8v32h-115.2v-38.4h57.6l-22.4-22.4v-32h22.4c12.8 0 19.2-3.2 19.2-9.6 0-3.2-3.2-6.4-6.4-9.6s-9.6-3.2-16-3.2c-6.4 0-12.8 0-22.4 3.2-6.4 3.2-12.8 3.2-19.2 9.6l-19.2-38.4c9.6-3.2 19.2-9.6 28.8-9.6s22.4-3.2 32-3.2c16 0 28.8 3.2 41.6 6.4s19.2 12.8 22.4 19.2c6.4 9.6 6.4 16 6.4 25.6s-3.2 19.2-9.6 28.8c-6.4 3.2-16 9.6-28.8 12.8zM809.6 220.8h-48v-25.6h-22.4l57.6 89.6h-54.4l-64-96v-35.2h80v-25.6h51.2v25.6h22.4v41.6h-22.4z" />
<glyph unicode="&#xe605;" glyph-name="counter-box" d="M64 768v-640h896v640zM128 704h768v-512h-768zM355 588c-11-8.375-35.375-27.125-80-41v-49c30.75 3.375 53.75 20.125 57 23v-208h59v275zM680 588c-11-8.375-32.75-25.75-80-41v-49c35.125 5.5 53.75 20.125 57 23v-208h59v275zM508 507c-26.25 0-35-18.625-35-31 0-22.5 22.25-31 35-31 23.5 0 35 15.125 35 31 0 11.625-8.5 31-35 31zM508 370c-17.875 0-35-10-35-31 0-23.375 22.625-31 35-31 23.875 0 35 14.625 35 31 0 13.75-11.375 31-35 31z" />
<glyph unicode="&#xe606;" glyph-name="diagram" d="M727 880l-12-34-10-29c-57.75 30.125-123.5 47-193 47-229.375 0-416-186.625-416-416s186.625-416 416-416c229.375 0 416 186.625 416 416 0 54.25-11 105.5-30 153l36 13 33 11-14 32c-37.875 88.125-106 162.25-194 207zM476 798c1.375 0.125 2.625-0.125 4 0v-318h-318c15.125 167.75 146.75 301.125 314 318zM544 798c49.625-4.5 96.5-19.125 138-42l-72-201-23-64 64 23 187 66c16.5-40.75 26-85.25 26-132 0-85.75-30.25-164-81-225l-239 239zM761 784c48.375-31.75 86.5-73.25 114-123l-182-64zM162 416h336l239-239c-61-50.75-139.25-81-225-81-184 0-333.875 140.375-350 320z" />
<glyph unicode="&#xe607;" glyph-name="divider" d="M512 877.25l-182.625-182.625 45.25-45.25 105.375 105.375v-210.75h-480v-64h1024v64h-480v210.75l105.375-105.375 45.25 45.25zM0 416v-64h480v-210.75l-105.375 105.375-45.25-45.25 182.625-182.625 182.625 182.625-45.25 45.25-105.375-105.375v210.75h480v64z" />
<glyph unicode="&#xe608;" glyph-name="dropcap" d="M160 800v-192h64v128h128v64zM672 800v-64h128v-128h64v192zM488 640l-8-21-94-256-2-5v-102h64v64h128v-64h64v102l-2 5-94 256-8 21zM512 521l50-137h-100zM160 288v-192h192v64h-128v128zM800 288v-128h-128v-64h192v192z" />
<glyph unicode="&#xe609;" glyph-name="featured-posts-slider" d="M597.25 862.125l-469.25-167.562v-406.562h64v361.438l426.75 152.438-21.5 60.25zM725.25 766.125l-469.25-167.563v-438.562h64v393.438l426.75 152.437-21.5 60.25zM896 685.438l-512-182.875v-484l512 182.875v484zM832 594.625v-348.062l-384-137.187v348.062l384 137.187z" />
<glyph unicode="&#xe60a;" glyph-name="fullwidth" d="M128 704v-512h64v512zM256 704c-17.625 0-32-14.375-32-32s14.375-32 32-32c17.625 0 32 14.375 32 32s-14.375 32-32 32zM384 704c-17.625 0-32-14.375-32-32s14.375-32 32-32c17.625 0 32 14.375 32 32s-14.375 32-32 32zM512 704c-17.625 0-32-14.375-32-32s14.375-32 32-32c17.625 0 32 14.375 32 32s-14.375 32-32 32zM640 704c-17.625 0-32-14.375-32-32s14.375-32 32-32c17.625 0 32 14.375 32 32s-14.375 32-32 32zM768 704c-17.625 0-32-14.375-32-32s14.375-32 32-32c17.625 0 32 14.375 32 32s-14.375 32-32 32zM832 704v-512h64v512zM352 544l-128-96 128-96v64h320v-64l128 96-128 96v-64h-320zM256 256c-17.625 0-32-14.375-32-32s14.375-32 32-32c17.625 0 32 14.375 32 32s-14.375 32-32 32zM384 256c-17.625 0-32-14.375-32-32s14.375-32 32-32c17.625 0 32 14.375 32 32s-14.375 32-32 32zM512 256c-17.625 0-32-14.375-32-32s14.375-32 32-32c17.625 0 32 14.375 32 32s-14.375 32-32 32zM640 256c-17.625 0-32-14.375-32-32s14.375-32 32-32c17.625 0 32 14.375 32 32s-14.375 32-32 32zM768 256c-17.625 0-32-14.375-32-32s14.375-32 32-32c17.625 0 32 14.375 32 32s-14.375 32-32 32z" />
<glyph unicode="&#xe60b;" glyph-name="gallery" d="M832 800v-128h128v-576h-768v128h-128v576h768zM128 368l204.8 204.8 160-160 121.6 121.6 153.6-153.6v355.2h-640v-368zM691.2 659.2c9.6-9.6 12.8-19.2 12.8-35.2 0-12.8-3.2-25.6-12.8-35.2s-19.2-12.8-35.2-12.8c-12.8 0-25.6 3.2-35.2 12.8s-12.8 19.2-12.8 35.2c0 12.8 3.2 25.6 12.8 35.2s22.4 12.8 35.2 12.8c12.8 0 25.6-3.2 35.2-12.8zM832 224h-576v-64h640v448h-64v-384zM137.6 288h384l-192 195.2-192-195.2zM537.6 368l76.8-80h153.6l-153.6 153.6-76.8-73.6z" />
<glyph unicode="&#xe60c;" glyph-name="icon" d="M512 892l-29-66-104-233-254-27-72-8 54-48 189-171-53-250-15-70 63 36 221 128 221-128 63-36-15 70-53 250 189 171 54 48-72 8-254 27-104 233zM512 735l82-185 8-17 18-2 201-21-150-135-14-13 4-18 42-197-175 100-16 10-16-10-175-100 42 197 4 18-14 13-150 135 219 23 8 17z" />
<glyph unicode="&#xe60d;" glyph-name="icon-with-text" d="M608 352h384v-64h-384v64zM608 608h384v-64h-384v64zM608 480h384v-64h-384v64zM345.6 563.2l-73.6 166.4-73.6-166.4-182.4-19.2 137.6-121.6-38.4-179.2 156.8 92.8 156.8-92.8-38.4 179.2 137.6 121.6-182.4 19.2zM329.6 409.6l9.6-38.4-35.2 19.2-32 19.2-64-38.4 9.6 38.4 6.4 35.2-57.6 51.2 76.8 6.4 16 35.2 12.8 35.2 32-70.4 76.8-6.4-57.6-51.2 6.4-35.2z" />
<glyph unicode="&#xe60e;" glyph-name="icon-with-title" d="M320 64h384v-64h-384v64zM256 320h512v-64h-512v64zM192 192h640v-64h-640v64zM585.6 723.2l-73.6 166.4-73.6-166.4-182.4-19.2 137.6-121.6-38.4-179.2 156.8 92.8 156.8-92.8-38.4 179.2 137.6 121.6-182.4 19.2zM569.6 569.6l9.6-38.4-35.2 19.2-32 19.2-64-38.4 9.6 38.4 6.4 35.2-57.6 51.2 76.8 6.4 16 35.2 12.8 35.2 32-70.4 76.8-6.4-57.6-51.2 6.4-35.2z" />
<glyph unicode="&#xe60f;" glyph-name="image" d="M64 800v-704h896v704zM128 736h768v-445l-192 193-145-145-184 186-23 23-224-224zM768 672c-35.375 0-64-28.625-64-64s28.625-64 64-64c35.375 0 64 28.625 64 64s-28.625 64-64 64zM352 457l294-297h-518v73zM704 393l192-192v-41h-159l-133 134z" />
<glyph unicode="&#xe610;" glyph-name="list" d="M329 791l-105-105-41 41-46-46 64-64 23-22 23 22 128 128zM480 736v-64h416v64zM329 535l-105-105-41 41-46-46 64-64 23-22 23 22 128 128zM480 480v-64h416v64zM329 279l-105-105-41 41-46-46 64-64 23-22 23 22 128 128zM480 224v-64h416v64z" />
<glyph unicode="&#xe611;" glyph-name="map-with-text" d="M928 960c-24.625 0-49.375-9.375-68-28l-324-324-1-10-15-106-7-43 43 7 106 15 10 1 324 324c37.125 37.125 37.125 98.875 0 136-18.625 18.625-43.375 28-68 28zM928 896c8.125 0 16.625-2.625 23-9 12.375-12.375 12.75-31.25 1-44l-1-1-309-310-53-7 7 53 310 309c6.375 6.375 13.875 9 22 9zM383 802l-255-109v-614l257 111 256-96 255 109v426l-64-64v-320l-160-68v247l-64-9v-241l-192 72v476l121-46 50 50zM352 720v-475l-160-68v474z" />
<glyph unicode="&#xe612;" glyph-name="news" d="M64 736v-256h256v256h-256zM384 736v-256h256v256h-256zM704 736v-256h256v256h-256zM128 672h128v-128h-128v128zM448 672h128v-128h-128v128zM768 672h128v-128h-128v128zM64 416v-256h256v256h-256zM384 416v-256h256v256h-256zM704 416v-256h256v256h-256zM128 352h128v-128h-128v128zM448 352h128v-128h-128v128zM768 352h128v-128h-128v128z" />
<glyph unicode="&#xe613;" glyph-name="news-grid" d="M128 832v-768h768v768zM192 768h288v-352h-288zM544 768h288v-224h-288zM544 480h288v-352h-288zM192 352h288v-224h-288z" />
<glyph unicode="&#xe614;" glyph-name="portfolio" d="M64 768v-576h416v-64h-160v-64h384v64h-160v64h416v576zM128 704h768v-448h-768zM192 640v-320h192v320zM448 640v-320h384v320zM256 576h64v-192h-64zM512 576h256v-192h-256z" />
<glyph unicode="&#xe615;" glyph-name="portfolio-slider" d="M288 832v-96h-160v-576h160v-96h448v96h160v576h-160v96h-448zM352 768h320v-640h-320v640zM192 672h96v-448h-96v448zM736 672h96v-448h-96v448z" />
<glyph unicode="&#xe616;" glyph-name="pricing-column" d="M508.8 371.2c-12.8 0-25.6 3.2-38.4 6.4s-25.6 9.6-35.2 16l-19.2-48c9.6-6.4 22.4-12.8 35.2-16s28.8-6.4 44.8-9.6v-32h38.4v35.2c25.6 3.2 41.6 12.8 54.4 25.6s19.2 28.8 19.2 44.8c0 16-3.2 28.8-12.8 38.4s-19.2 16-28.8 19.2c-9.6 3.2-25.6 9.6-41.6 12.8s-25.6 6.4-32 9.6c-6.4 3.2-9.6 6.4-9.6 12.8s3.2 9.6 9.6 16c6.4 3.2 16 6.4 28.8 6.4 19.2 0 41.6-6.4 60.8-16l19.2 48c-9.6 6.4-19.2 9.6-28.8 12.8-12.8 3.2-22.4 6.4-35.2 6.4v35.2h-38.4v-35.2c-25.6-3.2-44.8-9.6-57.6-25.6-12.8-12.8-19.2-28.8-19.2-48 0-16 3.2-28.8 12.8-38.4s19.2-16 28.8-19.2 25.6-9.6 41.6-12.8c16-3.2 25.6-6.4 32-9.6s9.6-6.4 9.6-12.8c0-16-12.8-22.4-38.4-22.4zM96 288h-32v-64h128v64h-32zM96 96h-32v-64h128v64h-32zM96 480h-32v-64h128v64h-32zM96 864h-32v-64h128v64h-32zM96 672h-32v-64h128v64h-32zM896 864h-640v-64h640v-704h-640v-64h704v832z" />
<glyph unicode="&#xe617;" glyph-name="pricing-footer" d="M64 32h896v256h-896v-256zM128 224h768v-128h-768v128zM508.8 483.2c-12.8 0-25.6 3.2-38.4 6.4s-25.6 9.6-35.2 16l-19.2-44.8c9.6-6.4 22.4-12.8 35.2-16s28.8-6.4 44.8-9.6v-35.2h38.4v35.2c25.6 3.2 41.6 12.8 54.4 25.6s19.2 28.8 19.2 44.8c0 16-3.2 28.8-12.8 38.4s-19.2 16-28.8 19.2c-9.6 3.2-25.6 9.6-41.6 12.8s-25.6 6.4-32 9.6c-6.4 3.2-9.6 6.4-9.6 12.8s3.2 9.6 9.6 16c6.4 3.2 16 6.4 28.8 6.4 19.2 0 41.6-6.4 60.8-16l19.2 48c-9.6 6.4-19.2 9.6-28.8 12.8-12.8 3.2-22.4 6.4-35.2 6.4v28.8h-38.4v-35.2c-25.6-3.2-44.8-9.6-57.6-25.6-12.8-12.8-19.2-28.8-19.2-48 0-16 3.2-28.8 12.8-38.4s19.2-16 28.8-19.2 25.6-9.6 41.6-12.8c16-3.2 25.6-6.4 32-9.6s9.6-6.4 9.6-12.8c0-9.6-12.8-16-38.4-16zM352 800h32v64h-128v-64h32zM736 800h32v64h-128v-64h32zM160 800h32v64h-128v-64h32zM544 800h32v64h-128v-64h32zM864 672h-32v-64h128v64h-32zM928 864h-96v-64h128v64zM160 608h32v64h-128v-64h32zM864 480h-32v-64h128v64h-32zM160 416h32v64h-128v-64h32z" />
<glyph unicode="&#xe618;" glyph-name="pricing-price" d="M64 864v-256h896v256h-896zM896 672h-768v128h768v-128zM566.4 361.6c-9.6 3.2-25.6 9.6-41.6 12.8s-25.6 6.4-32 9.6c-6.4 3.2-9.6 6.4-9.6 12.8s3.2 9.6 9.6 16c6.4 3.2 16 6.4 28.8 6.4 19.2 0 41.6-6.4 60.8-16l19.2 48c-9.6 6.4-19.2 9.6-28.8 12.8-12.8 3.2-22.4 6.4-35.2 6.4v35.2h-38.4v-35.2c-25.6-3.2-44.8-9.6-57.6-25.6-12.8-12.8-19.2-28.8-19.2-48 0-16 3.2-28.8 12.8-38.4s19.2-16 28.8-19.2 25.6-9.6 41.6-12.8c16-3.2 25.6-6.4 32-9.6s9.6-6.4 9.6-12.8c0-12.8-12.8-19.2-35.2-19.2-12.8 0-25.6 3.2-38.4 6.4s-25.6 9.6-35.2 16l-22.4-51.2c9.6-6.4 22.4-12.8 35.2-16s28.8-6.4 44.8-9.6v-35.2h38.4v35.2c25.6 3.2 41.6 12.8 54.4 25.6s19.2 32 19.2 48c0 16-3.2 28.8-12.8 38.4s-16 16-28.8 19.2zM288 96h-32v-64h128v64h-32zM480 96h-32v-64h128v64h-32zM96 480h-32v-64h128v64h-32zM96 96h-32v-64h128v64h-32zM96 288h-32v-64h128v64h-32zM864 288h-32v-64h128v64h-32zM672 96h-32v-64h128v64h-32zM864 480h-32v-64h128v64h-32zM864 96h-32v-64h128v64h-32z" />
<glyph unicode="&#xe619;" glyph-name="pricing-row" d="M508.8 364.8c-12.8 0-25.6 3.2-38.4 6.4s-25.6 9.6-35.2 16l-19.2-48c9.6-6.4 22.4-12.8 35.2-16s28.8-6.4 44.8-9.6v-35.2h38.4v35.2c25.6 3.2 41.6 12.8 54.4 25.6s19.2 28.8 19.2 44.8c0 16-3.2 28.8-12.8 38.4s-19.2 16-28.8 19.2c-9.6 3.2-25.6 9.6-41.6 12.8s-25.6 6.4-32 9.6c-6.4 3.2-9.6 6.4-9.6 12.8s3.2 9.6 9.6 16c6.4 3.2 16 6.4 28.8 6.4 19.2 0 41.6-6.4 60.8-16l19.2 48c-9.6 6.4-19.2 9.6-28.8 12.8-12.8 3.2-22.4 6.4-35.2 6.4v35.2h-38.4v-35.2c-25.6-3.2-44.8-9.6-57.6-25.6-12.8-12.8-19.2-28.8-19.2-48 0-16 3.2-28.8 12.8-38.4s19.2-16 28.8-19.2 25.6-9.6 41.6-12.8c16-3.2 25.6-6.4 32-9.6s9.6-6.4 9.6-12.8c0-12.8-12.8-19.2-38.4-19.2zM160 800h32v64h-128v-64h32zM352 800h32v64h-128v-64h32zM544 800h32v64h-128v-64h32zM736 800h32v64h-128v-64h32zM928 864h-96v-64h128v64zM896 96h-768v640h-64v-704h896v704h-64z" />
<glyph unicode="&#xe61a;" glyph-name="pricing-row-title" d="M566.4 361.6c-9.6 3.2-25.6 9.6-41.6 12.8s-25.6 6.4-32 9.6c-6.4 3.2-9.6 6.4-9.6 12.8s3.2 9.6 9.6 16c6.4 3.2 16 6.4 28.8 6.4 19.2 0 41.6-6.4 60.8-16l19.2 48c-9.6 6.4-19.2 9.6-28.8 12.8-12.8 3.2-22.4 6.4-35.2 6.4v35.2h-38.4v-35.2c-25.6-3.2-44.8-9.6-57.6-25.6-12.8-12.8-19.2-28.8-19.2-48 0-16 3.2-28.8 12.8-38.4s19.2-16 28.8-19.2 25.6-9.6 41.6-12.8c16-3.2 25.6-6.4 32-9.6s9.6-6.4 9.6-12.8c0-12.8-12.8-19.2-35.2-19.2-12.8 0-25.6 3.2-38.4 6.4s-25.6 9.6-35.2 16l-22.4-51.2c9.6-6.4 22.4-12.8 35.2-16s28.8-6.4 44.8-9.6v-35.2h38.4v35.2c25.6 3.2 41.6 12.8 54.4 25.6s19.2 32 19.2 48c0 16-3.2 28.8-12.8 38.4s-16 16-28.8 19.2zM96 480h-32v-64h128v64h-32zM96 288h-32v-64h128v64h-32zM288 96h-32v-64h128v64h-32zM288 672h-32v-64h128v64h-32zM96 864h-32v-64h128v64h-32zM96 672h-32v-64h128v64h-32zM96 96h-32v-64h128v64h-32zM544 608h32v64h-128v-64h32zM544 800h32v64h-128v-64h32zM864 96h-32v-64h128v64h-32zM864 288h-32v-64h128v64h-32zM864 480h-32v-64h128v64h-32zM928 864h-96v-64h128v64zM672 864h-32v-64h128v64h-32zM288 864h-32v-64h128v64h-32zM864 672h-32v-64h128v64h-32zM672 96h-32v-64h128v64h-32zM672 672h-32v-64h128v64h-32zM480 96h-32v-64h128v64h-32z" />
<glyph unicode="&#xe61b;" glyph-name="pricing-table" d="M467 832l-10-9-352-352-22-23 22-23 288-288 23-22 23 22 352 352 9 10v333zM494 768h242v-242l-320-320-242 242zM832 736v-64h32v-261l-304-302-40 40-45-45 62-63 23-22 22 22 337 333 9 10v352zM640 704c-17.625 0-32-14.375-32-32s14.375-32 32-32c17.625 0 32 14.375 32 32s-14.375 32-32 32z" />
<glyph unicode="&#xe61c;" glyph-name="product-categories" d="M64 480h416v416h-416v-416zM128 832h288v-288h-288v288zM544 896v-416h416v416h-416zM896 544h-288v288h288v-288zM64 0h416v416h-416v-416zM128 352h288v-288h-288v288zM544 0h416v416h-416v-416zM608 352h288v-288h-288v288zM192 672h96v-64h-96v64zM672 672h96v-64h-96v64zM192 192h96v-64h-96v64zM672 192h96v-64h-96v64z" />
<glyph unicode="&#xe61d;" glyph-name="product-grid" d="M0 640h288v288h-288v-288zM64 864h160v-160h-160v160zM0 576h160v-64h-160v64zM352 640h288v288h-288v-288zM416 864h160v-160h-160v160zM352 576h160v-64h-160v64zM704 928v-288h288v288h-288zM928 704h-160v160h160v-160zM704 576h160v-64h-160v64zM0 96h288v288h-288v-288zM64 320h160v-160h-160v160zM0 32h160v-64h-160v64zM352 96h288v288h-288v-288zM416 320h160v-160h-160v160zM352 32h160v-64h-160v64zM704 96h288v288h-288v-288zM768 320h160v-160h-160v160zM704 32h160v-64h-160v64z" />
<glyph unicode="&#xe61e;" glyph-name="product-slider" d="M160 192h320v480h-320v-480zM224 608h192v-352h-192v352zM544 192h320v480h-320v-480zM608 608h192v-352h-192v352zM1011.2 444.8l-54.4 67.2-35.2-28.8 44.8-51.2-44.8-51.2 35.2-28.8 54.4 67.2 12.8 12.8zM67.2 512l-54.4-67.2-12.8-12.8 12.8-12.8 54.4-67.2 35.2 28.8-44.8 51.2 44.8 51.2z" />
<glyph unicode="&#xe61f;" glyph-name="project-info" d="M512 864c-229.375 0-416-186.625-416-416s186.625-416 416-416c229.375 0 416 186.625 416 416s-186.625 416-416 416zM512 800c194.75 0 352-157.25 352-352s-157.25-352-352-352c-194.75 0-352 157.25-352 352s157.25 352 352 352zM480 640v-64h64v64zM480 512v-256h64v256z" />
<glyph unicode="&#xe620;" glyph-name="quickfinder" d="M256 800c-29.333 0-55.406-12.152-71.938-30.75s-24.062-42.139-24.062-65.25c0-23.111 7.531-46.652 24.062-65.25s42.604-30.75 71.938-30.75c29.333 0 55.406 12.152 71.938 30.75s24.062 42.139 24.062 65.25c0 23.111-7.531 46.652-24.062 65.25s-42.604 30.75-71.938 30.75zM512 800c-29.333 0-55.406-12.152-71.938-30.75s-24.062-42.139-24.062-65.25c0-23.111 7.531-46.652 24.062-65.25s42.604-30.75 71.938-30.75c29.333 0 55.406 12.152 71.938 30.75s24.062 42.139 24.062 65.25c0 23.111-7.531 46.652-24.062 65.25s-42.604 30.75-71.938 30.75zM768 800c-29.333 0-55.406-12.152-71.938-30.75s-24.062-42.139-24.062-65.25c0-23.111 7.531-46.652 24.062-65.25s42.604-30.75 71.938-30.75c29.333 0 55.406 12.152 71.938 30.75s24.062 42.139 24.062 65.25c0 23.111-7.531 46.652-24.062 65.25s-42.604 30.75-71.938 30.75zM256 736c13.333 0 19.261-3.848 24.062-9.25s7.938-13.861 7.938-22.75c0-8.889-3.136-17.348-7.938-22.75s-10.729-9.25-24.062-9.25c-13.333 0-19.261 3.848-24.062 9.25s-7.938 13.861-7.938 22.75c0 8.889 3.136 17.348 7.938 22.75s10.729 9.25 24.062 9.25zM512 736c13.333 0 19.261-3.848 24.062-9.25s7.938-13.861 7.938-22.75c0-8.889-3.136-17.348-7.938-22.75s-10.729-9.25-24.062-9.25c-13.333 0-19.261 3.848-24.062 9.25s-7.938 13.861-7.938 22.75c0 8.889 3.136 17.348 7.938 22.75s10.729 9.25 24.062 9.25zM768 736c13.333 0 19.261-3.848 24.062-9.25s7.938-13.861 7.938-22.75c0-8.889-3.136-17.348-7.938-22.75s-10.729-9.25-24.062-9.25c-13.333 0-19.261 3.848-24.062 9.25s-7.938 13.861-7.938 22.75c0 8.889 3.136 17.348 7.938 22.75s10.729 9.25 24.062 9.25zM256 544c-29.333 0-55.406-12.152-71.938-30.75s-24.062-42.139-24.062-65.25c0-23.111 7.531-46.652 24.062-65.25s42.604-30.75 71.938-30.75c29.333 0 55.406 12.152 71.938 30.75s24.062 42.139 24.062 65.25c0 23.111-7.531 46.652-24.062 65.25s-42.604 30.75-71.938 30.75zM512 544c-29.333 0-55.406-12.152-71.938-30.75s-24.062-42.139-24.062-65.25c0-23.111 7.531-46.652 24.062-65.25s42.604-30.75 71.938-30.75c29.333 0 55.406 12.152 71.938 30.75s24.062 42.139 24.062 65.25c0 23.111-7.531 46.652-24.062 65.25s-42.604 30.75-71.938 30.75zM768 544c-29.333 0-55.406-12.152-71.938-30.75s-24.062-42.139-24.062-65.25c0-23.111 7.531-46.652 24.062-65.25s42.604-30.75 71.938-30.75c29.333 0 55.406 12.152 71.938 30.75s24.062 42.139 24.062 65.25c0 23.111-7.531 46.652-24.062 65.25s-42.604 30.75-71.938 30.75zM256 480c13.333 0 19.261-3.848 24.062-9.25s7.938-13.861 7.938-22.75c0-8.889-3.136-17.348-7.938-22.75s-10.729-9.25-24.062-9.25c-13.333 0-19.261 3.848-24.062 9.25s-7.938 13.861-7.938 22.75c0 8.889 3.136 17.348 7.938 22.75s10.729 9.25 24.062 9.25zM512 480c13.333 0 19.261-3.848 24.062-9.25s7.938-13.861 7.938-22.75c0-8.889-3.136-17.348-7.938-22.75s-10.729-9.25-24.062-9.25c-13.333 0-19.261 3.848-24.062 9.25s-7.938 13.861-7.938 22.75c0 8.889 3.136 17.348 7.938 22.75s10.729 9.25 24.062 9.25zM768 480c13.333 0 19.261-3.848 24.062-9.25s7.938-13.861 7.938-22.75c0-8.889-3.136-17.348-7.938-22.75s-10.729-9.25-24.062-9.25c-13.333 0-19.261 3.848-24.062 9.25s-7.938 13.861-7.938 22.75c0 8.889 3.136 17.348 7.938 22.75s10.729 9.25 24.062 9.25zM256 288c-29.333 0-55.406-12.152-71.938-30.75s-24.062-42.139-24.062-65.25c0-23.111 7.531-46.652 24.062-65.25s42.604-30.75 71.938-30.75c29.333 0 55.406 12.152 71.938 30.75s24.062 42.139 24.062 65.25c0 23.111-7.531 46.652-24.062 65.25s-42.604 30.75-71.938 30.75zM512 288c-29.333 0-55.406-12.152-71.938-30.75s-24.062-42.139-24.062-65.25c0-23.111 7.531-46.652 24.062-65.25s42.604-30.75 71.938-30.75c29.333 0 55.406 12.152 71.938 30.75s24.062 42.139 24.062 65.25c0 23.111-7.531 46.652-24.062 65.25s-42.604 30.75-71.938 30.75zM768 288c-29.333 0-55.406-12.152-71.938-30.75s-24.062-42.139-24.062-65.25c0-23.111 7.531-46.652 24.062-65.25s42.604-30.75 71.938-30.75c29.333 0 55.406 12.152 71.938 30.75s24.062 42.139 24.062 65.25c0 23.111-7.531 46.652-24.062 65.25s-42.604 30.75-71.938 30.75zM256 224c13.333 0 19.261-3.848 24.062-9.25s7.938-13.861 7.938-22.75c0-8.889-3.136-17.348-7.938-22.75s-10.729-9.25-24.062-9.25c-13.333 0-19.261 3.848-24.062 9.25s-7.938 13.861-7.938 22.75c0 8.889 3.136 17.348 7.938 22.75s10.729 9.25 24.062 9.25zM512 224c13.333 0 19.261-3.848 24.062-9.25s7.938-13.861 7.938-22.75c0-8.889-3.136-17.348-7.938-22.75s-10.729-9.25-24.062-9.25c-13.333 0-19.261 3.848-24.062 9.25s-7.938 13.861-7.938 22.75c0 8.889 3.136 17.348 7.938 22.75s10.729 9.25 24.062 9.25zM768 224c13.333 0 19.261-3.848 24.062-9.25s7.938-13.861 7.938-22.75c0-8.889-3.136-17.348-7.938-22.75s-10.729-9.25-24.062-9.25c-13.333 0-19.261 3.848-24.062 9.25s-7.938 13.861-7.938 22.75c0 8.889 3.136 17.348 7.938 22.75s10.729 9.25 24.062 9.25z" />
<glyph unicode="&#xe621;" glyph-name="quote" d="M128 704v-320h256c0-71-57-128-128-128v-64c105.625 0 192 86.375 192 192v320zM576 704v-320h256c0-71-57-128-128-128v-64c105.625 0 192 86.375 192 192v320zM192 640h192v-192h-192zM640 640h192v-192h-192z" />
<glyph unicode="&#xe622;" glyph-name="search-form" d="M608 864c-176.375 0-320-143.625-320-320 0-76.625 26.875-146.875 72-202l-255-255 46-46 255 255c55.125-45.125 125.375-72 202-72 176.375 0 320 143.625 320 320s-143.625 320-320 320zM608 800c141.75 0 256-114.25 256-256s-114.25-256-256-256c-141.75 0-256 114.25-256 256s114.25 256 256 256z" />
<glyph unicode="&#xe623;" glyph-name="socials" d="M534 864l-10-9-217-215h-147v-512h539c45.125 0 84.5 31.875 94 76l69 320c12.625 59.125-33.625 116-94 116h-184l6 24c6.5 5 10.625 7.125 20 20 15 20.5 30 52.25 30 95 0 45.625-41.25 85-93 85zM557 797c13.5-2.625 19-8.125 19-18 0-28.875-8.75-46.75-17-58s-14-14-14-14l-11-6-4-13-19-72-10-40h267c21.125 0 35.375-18.375 31-39l-68-320c-3.25-15-16.75-25-32-25h-347v403zM224 576h64v-384h-64z" />
<glyph unicode="&#xe624;" glyph-name="table" d="M128 768v-640h768v640zM192 704h160v-128h-160zM416 704h416v-128h-416zM192 512h160v-128h-160zM416 512h416v-128h-416zM192 320h160v-128h-160zM416 320h416v-128h-416z" />
<glyph unicode="&#xe625;" glyph-name="team" d="M480 832v-128h64v128h-64zM96 768v-640h832v640h-352v-64h288v-512h-704v512h288v64h-352zM384 640c-70.315 0-128-57.685-128-128 0-36.864 16.345-69.634 41.562-93.062-43.21-28.73-73.562-75.463-73.562-130.938h64c0 53.391 42.609 96 96 96s96-42.609 96-96h64c0 55.475-30.353 102.207-73.562 130.938 25.218 23.429 41.562 56.199 41.562 93.062 0 70.315-57.685 128-128 128zM608 608v-64h192v64h-192zM384 576c35.733 0 64-28.267 64-64s-28.267-64-64-64c-35.733 0-64 28.267-64 64s28.267 64 64 64zM608 480v-64h192v64h-192zM608 352v-64h128v64h-128z" />
<glyph unicode="&#xe626;" glyph-name="testimonials" d="M160 832v-704h242l87-87 23-22 23 22 87 87h242v704zM224 768h576v-576h-205l-10-9-73-73-73 73-10 9h-205zM512 672c-70.375 0-128-57.625-128-128 0-34.125 13.875-65 36-88-59.25-32.75-100-95.875-100-168h64c0 71 57 128 128 128s128-57 128-128h64c0 72.125-40.75 135.25-100 168 22.125 23 36 53.875 36 88 0 70.375-57.625 128-128 128zM512 608c35.75 0 64-28.25 64-64s-28.25-64-64-64c-35.75 0-64 28.25-64 64s28.25 64 64 64z" />
<glyph unicode="&#xe627;" glyph-name="textbox" d="M160 800v-64h64v64zM288 800v-64h64v64zM416 800v-64h64v64zM544 800v-64h64v64zM672 800v-64h64v64zM800 800v-64h64v64zM160 672v-64h64v64zM800 672v-64h64v64zM320 608v-64h384v64zM160 544v-64h64v64zM800 544v-64h64v64zM320 480v-64h320v64zM160 416v-64h64v64zM800 416v-64h64v64zM320 352v-64h384v64zM160 288v-64h64v64zM800 288v-64h64v64zM160 160v-64h64v64zM288 160v-64h64v64zM416 160v-64h64v64zM544 160v-64h64v64zM672 160v-64h64v64zM800 160v-64h64v64z" />
<glyph unicode="&#xe628;" glyph-name="video" d="M512 832c-211.75 0-384-172.25-384-384s172.25-384 384-384c211.75 0 384 172.25 384 384s-172.25 384-384 384zM512 768c177.125 0 320-142.875 320-320s-142.875-320-320-320c-177.125 0-320 142.875-320 320s142.875 320 320 320zM384 668v-440l48 28 288 164 48 28-48 28-288 164zM448 558l191-110-191-110z" />
<glyph unicode="&#xe629;" glyph-name="vimeo" d="M886.4 790.4c-25.6 25.6-57.6 41.6-102.4 41.6 0 0 0 0 0 0-105.6 0-185.6-73.6-236.8-208l57.6-25.6c3.2 9.6 12.8 9.6 19.2 9.6 16 0 16-22.4 16-28.8-3.2-25.6-19.2-92.8-41.6-131.2-22.4-35.2-35.2-51.2-41.6-57.6-6.4 9.6-16 35.2-28.8 92.8-6.4 22.4-16 86.4-32 182.4-9.6 70.4-38.4 166.4-140.8 166.4-115.2 0-230.4-185.6-243.2-208l-12.8-19.2 86.4-92.8 22.4 25.6c6.4 6.4 12.8 16 19.2 22.4 6.4-9.6 22.4-38.4 38.4-102.4l64-243.2c35.2-102.4 83.2-153.6 144-153.6 83.2 0 179.2 73.6 291.2 230.4 105.6 144 160 256 163.2 342.4v0c3.2 73.6-9.6 121.6-41.6 156.8zM713.6 329.6c-121.6-166.4-198.4-201.6-240-201.6-28.8 0-57.6 38.4-83.2 108.8l-60.8 240c-28.8 108.8-60.8 156.8-105.6 156.8-9.6 0-19.2-3.2-41.6-25.6l-3.2 3.2c44.8 67.2 121.6 156.8 176 156.8 28.8 0 60.8-9.6 76.8-112s25.6-163.2 32-188.8c16-76.8 38.4-147.2 89.6-147.2 32 0 60.8 28.8 99.2 92.8 32 54.4 48 131.2 51.2 163.2 0 51.2-25.6 86.4-64 96 32 51.2 76.8 96 144 96 0 0 0 0 0 0 25.6 0 44.8-6.4 54.4-22.4 19.2-19.2 25.6-57.6 25.6-108.8-3.2-70.4-54.4-172.8-150.4-307.2z" />
<glyph unicode="&#xe62a;" glyph-name="youtube" d="M512 768c-120.5 0-227-12.5-292-22-53.75-7.875-97.125-48.375-107-102-8.375-45.625-17-112.375-17-196s8.625-150.375 17-196c9.875-53.625 53.25-94.25 107-102 65.25-9.5 172.125-22 292-22s226.75 12.5 292 22c53.75 7.75 97.125 48.375 107 102 8.375 45.75 17 112.625 17 196s-8.5 150.25-17 196c-9.875 53.625-53.25 94.125-107 102-65 9.5-171.5 22-292 22zM512 704c116.25 0 220.125-11.875 283-21 27-4 48.125-24.375 53-51 7.75-42.25 16-104.875 16-184 0-79-8.25-141.75-16-184-4.875-26.625-25.875-47.125-53-51-63.125-9.125-167.5-21-283-21s-220 11.875-283 21c-27 3.875-48.125 24.375-53 51-7.75 42.25-16 104.75-16 184 0 79.375 8.25 141.75 16 184 4.875 26.625 25.875 47 53 51 62.75 9.125 166.75 21 283 21zM416 631v-366l48 27 224 128 48 28-48 28-224 128zM480 521l127-73-127-73z" />
<glyph unicode="&#xe62b;" glyph-name="title-background" d="M0 896v-448h1024v448h-1024zM960 512h-896v320h896v-320zM0 320h480v-64h-480v64zM544 320h480v-64h-480v64zM0 192h480v-64h-480v64zM544 192h480v-64h-480v64zM0 64h480v-64h-480v64zM544 64h480v-64h-480v64z" />
<glyph unicode="&#xe62c;" glyph-name="title-title" d="M0 896v-448h1024v448h-1024zM960 512h-896v320h896v-320zM160 768h416v-64h-416v64zM0 320h480v-64h-480v64zM544 320h480v-64h-480v64zM0 192h480v-64h-480v64zM544 192h480v-64h-480v64zM0 64h480v-64h-480v64zM544 64h480v-64h-480v64z" />
<glyph unicode="&#xe62d;" glyph-name="title-excerpt" d="M0 896v-448h1024v448h-1024zM960 512h-896v320h896v-320zM0 320h480v-64h-480v64zM544 320h480v-64h-480v64zM0 192h480v-64h-480v64zM544 192h480v-64h-480v64zM0 64h480v-64h-480v64zM544 64h480v-64h-480v64zM160 640h96v-64h-96v64zM320 640h96v-64h-96v64zM480 640h96v-64h-96v64z" />
<glyph unicode="&#xe62e;" glyph-name="title-icon" d="M0 896v-448h1024v448h-1024zM960 512h-896v320h896v-320zM0 320h480v-64h-480v64zM544 320h480v-64h-480v64zM0 192h480v-64h-480v64zM544 192h480v-64h-480v64zM0 64h480v-64h-480v64zM544 64h480v-64h-480v64zM672 544l83.2 51.2 83.2-51.2-19.2 96 76.8 67.2-99.2 9.6-38.4 89.6-38.4-89.6-99.2-9.6 73.6-67.2-22.4-96zM729.6 678.4h16l12.8 25.6 12.8-28.8h32l-22.4-22.4 3.2-12.8 3.2-16-12.8 6.4-16 9.6-25.6-16 3.2 16 3.2 12.8-22.4 22.4 12.8 3.2z" />
<glyph unicode="&#xe62f;" glyph-name="heading" d="M0 896v-640h1024v640h-1024zM960 320h-896v512h896v-512zM256 608h512v-64h-512v64zM352 480h320v-64h-320v64zM480 736h64v-64h-64v64zM0 192h480v-64h-480v64zM544 192h480v-64h-480v64zM0 64h480v-64h-480v64zM544 64h480v-64h-480v64z" />
<glyph unicode="&#xe630;" glyph-name="te-logo" d="M1008 448l-86.4 92.8 38.4 121.6-118.4 44.8-19.2 128-128-9.6-70.4 105.6-108.8-64-108.8 64-70.4-105.6-128 9.6-19.2-128-121.6-44.8 38.4-121.6-89.6-92.8 86.4-92.8-38.4-121.6 118.4-44.8 19.2-128 128 9.6 70.4-105.6 108.8 64 108.8-64 70.4 105.6 128-9.6 19.2 128 118.4 44.8-38.4 121.6 92.8 92.8zM880 272l-99.2-38.4-16-105.6-105.6 9.6-57.6-86.4-89.6 54.4-89.6-54.4-57.6 86.4-105.6-9.6-16 105.6-99.2 38.4 32 99.2-70.4 76.8 73.6 76.8-32 99.2 99.2 38.4 16 105.6 105.6-9.6 57.6 86.4 86.4-54.4 89.6 54.4 57.6-86.4 105.6 9.6 16-105.6 99.2-38.4-32-99.2 73.6-76.8-73.6-76.8 32-99.2zM320 544h384v-64h-384v64zM384 416h256v-64h-256v64z" />
<glyph unicode="&#xe631;" glyph-name="te-search" d="M96 544c0-176 144-320 320-320 76.8 0 147.2 25.6 201.6 73.6l256-256 44.8 44.8-256 256c44.8 54.4 73.6 124.8 73.6 201.6 0 176-144 320-320 320s-320-144-320-320zM672 544c0-140.8-115.2-256-256-256s-256 115.2-256 256 115.2 256 256 256 256-115.2 256-256z" />
<glyph unicode="&#xe632;" glyph-name="te-wishlist" d="M512 51.2l-76.8 70.4c-99.2 89.6-182.4 166.4-240 236.8-64 73.6-96 150.4-99.2 230.4 0 70.4 25.6 128 70.4 172.8s102.4 70.4 172.8 70.4c0 0 0 0 0 0 38.4 0 76.8-9.6 108.8-25.6 22.4-12.8 44.8-25.6 64-41.6 19.2 16 41.6 32 64 41.6 35.2 19.2 70.4 25.6 108.8 25.6 70.4 0 128-25.6 172.8-70.4s70.4-102.4 70.4-172.8c0-80-35.2-156.8-99.2-230.4-60.8-70.4-140.8-150.4-240-236.8l-76.8-70.4zM339.2 768c-51.2 0-92.8-16-128-51.2-32-35.2-51.2-76.8-51.2-128 0-60.8 28.8-124.8 83.2-188.8 57.6-67.2 137.6-144 233.6-230.4l35.2-32 35.2 32c99.2 86.4 176 163.2 233.6 230.4 54.4 60.8 80 124.8 83.2 188.8 0 51.2-19.2 92.8-51.2 128-35.2 35.2-76.8 51.2-128 51.2-28.8 0-54.4-6.4-80-19.2-28.8-12.8-51.2-28.8-70.4-48l-22.4-28.8-22.4 25.6c-19.2 22.4-41.6 38.4-70.4 51.2-25.6 12.8-51.2 19.2-80 19.2z" />
<glyph unicode="&#xe633;" glyph-name="te-cart" d="M758.4 320l147.2 352h-473.6v-64h377.6l-96-224h-307.2l-131.2 448h-147.2v-64h99.2l134.4-448zM384 256c-54.4 0-96-41.6-96-96s41.6-96 96-96 96 41.6 96 96-41.6 96-96 96zM384 128c-19.2 0-32 12.8-32 32s12.8 32 32 32 32-12.8 32-32-12.8-32-32-32zM736 256c-54.4 0-96-41.6-96-96s41.6-96 96-96 96 41.6 96 96-41.6 96-96 96zM736 128c-19.2 0-32 12.8-32 32s12.8 32 32 32 32-12.8 32-32-12.8-32-32-32z" />
<glyph unicode="&#xe634;" glyph-name="te-account" d="M713.6 409.6c-16-16-32-28.8-51.2-41.6 67.2-44.8 108.8-118.4 108.8-211.2v-60.8h-547.2v60.8c0 92.8 41.6 166.4 108.8 211.2-19.2 12.8-35.2 25.6-51.2 41.6-76.8-57.6-121.6-147.2-121.6-252.8v-124.8h672v124.8c0 105.6-44.8 195.2-118.4 252.8zM496 416c115.2 0 208 92.8 208 208s-92.8 208-208 208-208-92.8-208-208 92.8-208 208-208zM496 768c80 0 144-64 144-144s-64-144-144-144-144 64-144 144 64 144 144 144z" />
<glyph unicode="&#xe635;" glyph-name="te-divider" d="M83.2 448l182.4-182.4 44.8 44.8-105.6 105.6h211.2v-480h64v1024h-64v-480h-211.2l105.6 105.6-44.8 44.8-182.4-182.4zM544-64h64v480h211.2l-105.6-105.6 44.8-44.8 182.4 182.4-182.4 182.4-44.8-44.8 105.6-105.6h-211.2v480h-64v-1024z" />
<glyph unicode="&#xe636;" glyph-name="te-secondary-menu" d="M0 736h160v-64h-160v64zM256 736h160v-64h-160v64zM512 736h160v-64h-160v64zM768 736h160v-64h-160v64zM998.4 329.6l-444.8 246.4 201.6-505.6 44.8 172.8 105.6-105.6 44.8 44.8-105.6 105.6 153.6 41.6zM755.2 332.8l-12.8-54.4-60.8 153.6 147.2-83.2-73.6-16z" />
<glyph unicode="&#xe637;" glyph-name="te-menu" d="M256 672h512v-96h64v160h-640v-160h64zM256 192h-64v-160h448v64h-384zM0 896h160v-64h-160v64zM256 896h160v-64h-160v64zM512 896h160v-64h-160v64zM768 896h160v-64h-160v64zM320 608h384v-64h-384v64zM320 480h160v-64h-160v64zM320 224h256v-64h-256v64zM320 352h224v-64h-224v64zM998.4 233.6l-444.8 246.4 201.6-505.6 44.8 172.8 105.6-105.6 44.8 44.8-105.6 105.6 153.6 41.6zM755.2 236.8l-12.8-54.4-60.8 153.6 147.2-83.2-73.6-16z" />
<glyph unicode="&#xe638;" glyph-name="te-infotext" d="M608 352h384v-64h-384v64zM608 608h384v-64h-384v64zM608 480h384v-64h-384v64zM345.6 563.2l-73.6 166.4-73.6-166.4-182.4-19.2 137.6-121.6-38.4-179.2 156.8 92.8 156.8-92.8-38.4 179.2 137.6 121.6-182.4 19.2zM329.6 409.6l9.6-38.4-35.2 19.2-32 19.2-64-38.4 9.6 38.4 6.4 35.2-57.6 51.2 76.8 6.4 16 35.2 12.8 35.2 32-70.4 76.8-6.4-57.6-51.2 6.4-35.2z" />
<glyph unicode="&#xe639;" glyph-name="te-language-switcher" d="M512 832c-211.2 0-384-172.8-384-384s172.8-384 384-384 384 172.8 384 384-172.8 384-384 384zM512 768c6.4 0 16-3.2 25.6-16s22.4-35.2 35.2-64c3.2-16 9.6-32 12.8-48h-147.2c3.2 16 9.6 32 12.8 44.8 9.6 28.8 22.4 51.2 35.2 64s19.2 19.2 25.6 19.2zM409.6 752c-6.4-12.8-12.8-28.8-19.2-44.8-6.4-19.2-12.8-41.6-19.2-67.2h-115.2c38.4 51.2 92.8 89.6 153.6 112zM614.4 752c60.8-22.4 115.2-60.8 153.6-112h-115.2c-6.4 25.6-12.8 48-19.2 67.2-6.4 16-12.8 32-19.2 44.8zM217.6 576h144c-3.2-28.8-6.4-64-9.6-96h-160c6.4 35.2 12.8 67.2 25.6 96zM425.6 576h172.8c3.2-28.8 6.4-60.8 9.6-96h-192c3.2 35.2 6.4 67.2 9.6 96zM662.4 576h144c12.8-28.8 19.2-60.8 25.6-96h-160c-3.2 32-6.4 67.2-9.6 96zM195.2 416h160c0-32 3.2-67.2 9.6-96h-147.2c-12.8 28.8-19.2 60.8-22.4 96zM416 416h192c0-35.2-3.2-67.2-9.6-96h-172.8c-3.2 28.8-6.4 60.8-9.6 96zM672 416h160c-3.2-35.2-9.6-67.2-25.6-96h-144c3.2 28.8 6.4 64 9.6 96zM256 256h115.2c6.4-25.6 12.8-48 19.2-67.2 6.4-16 12.8-32 19.2-44.8-60.8 22.4-115.2 60.8-153.6 112zM438.4 256h147.2c-3.2-16-9.6-32-12.8-44.8-9.6-28.8-22.4-51.2-35.2-64s-19.2-19.2-25.6-19.2c-6.4 0-16 3.2-25.6 16s-22.4 35.2-35.2 64c-3.2 16-9.6 32-12.8 48zM652.8 256h115.2c-38.4-51.2-92.8-89.6-153.6-112 6.4 12.8 12.8 28.8 19.2 44.8 6.4 19.2 12.8 41.6 19.2 67.2z" />
<glyph unicode="&#xe63a;" glyph-name="te-countdown" d="M160 800v-704h704v704h-704zM224 736h576v-576h-576v576zM480 672v-256h192v64h-128v192h-64z" />
<glyph unicode="&#xe63b;" glyph-name="te-search-form" d="M32 672v-448h960v448h-960zM96 608h832v-320h-832v320zM752 576c-34.667 0-64.739-14.152-83.938-35.75s-28.062-49.139-28.062-76.25c0-27.111 8.864-54.652 28.062-76.25s49.271-35.75 83.938-35.75c19.901 0 37.94 5.066 53.625 13.125l45.625-45.625 45.25 45.25-45.562 45.625c8.61 16.792 13.062 35.241 13.062 53.625 0 27.111-8.864 54.652-28.062 76.25s-49.271 35.75-83.938 35.75zM752 512c18.667 0 28.594-5.848 36.062-14.25s11.938-20.861 11.938-33.75c0-12.889-4.469-25.348-11.938-33.75s-17.396-14.25-36.062-14.25c-18.667 0-28.594 5.848-36.062 14.25s-11.938 20.861-11.938 33.75c0 12.889 4.469 25.348 11.938 33.75s17.396 14.25 36.062 14.25z" />
<glyph unicode="&#xe63c;" glyph-name="section-template" d="M128 832v-512h128v-128h128v-128h377.625l99.188-99.187c19.2-19.2 43.187-28.813 67.187-28.813s47.987 9.613 67.187 28.813c19.2 19.2 28.813 43.187 28.813 67.187s-9.613 47.987-28.813 67.187l-99.187 99.188v377.625h-128v128h-128v128h-512zM192 768h384v-64h-320v-320h-64v384zM320 640h384v-64h-320v-320h-64v384zM448 512h384v-249.562l-86.375 86.375-169.625 35.187 35.187-169.625 86.375-86.375h-249.562v384zM659.187 300.813l54.438-9.625 236.75-236.812c12.8-12.8 12.8-31.95 0-44.75s-31.95-12.8-44.75 0l-236.812 236.75-9.625 54.438z" />
<glyph unicode="&#xe63d;" glyph-name="te-currency-switcher" d="M889.6 310.4c-16 44.8-60.8 73.6-108.8 67.2v0l-176-28.8c0 0 0 0-3.2 0 0 0 0 0-3.2 0l-9.6 6.4c-3.2 3.2-6.4 3.2-9.6 6.4-16 9.6-38.4 22.4-60.8 35.2-48 25.6-102.4 48-156.8 48-96 3.2-233.6-54.4-233.6-54.4l22.4-60.8c0 0 137.6 51.2 214.4 51.2 32 0 83.2-19.2 128-41.6 22.4-9.6 41.6-22.4 54.4-32 6.4-3.2 12.8-9.6 16-12.8 0 0 0 0 0 0s3.2-3.2 3.2-3.2l3.2-3.2c3.2-6.4 3.2-16 0-25.6-3.2-6.4-16-9.6-25.6-6.4l-140.8 67.2-28.8-57.6 144-67.2h3.2c28.8-9.6 60.8-3.2 83.2 16l19.2 19.2c12.8 19.2 16 38.4 16 60.8l153.6 25.6c16 3.2 32-6.4 38.4-22.4s-3.2-35.2-19.2-41.6c-48-19.2-121.6-51.2-192-76.8-35.2-12.8-67.2-25.6-89.6-32-12.8-3.2-22.4-6.4-32-9.6-6.4 0-9.6-3.2-12.8-3.2 0 0-12.8 3.2-25.6 9.6-16 9.6-32 19.2-51.2 32s-38.4 25.6-57.6 35.2-35.2 12.8-57.6 12.8c-51.2 0-99.2-19.2-99.2-19.2l25.6-57.6c0 0 38.4 16 73.6 16 0 0 12.8-3.2 28.8-12.8s35.2-19.2 51.2-32 38.4-25.6 57.6-35.2 35.2-19.2 57.6-19.2c9.6 0 16 3.2 28.8 3.2s22.4 6.4 35.2 9.6c25.6 9.6 57.6 19.2 92.8 32 70.4 25.6 144 57.6 195.2 76.8 32 12.8 54.4 44.8 57.6 80l-9.6 44.8zM576 608h64c16 0 32-6.4 32-32s-16-32-32-32h-128v-64h64v-64h64v64c38.4 0 96 25.6 96 96s-57.6 96-96 96h-64c-16 0-32 6.4-32 32s16 32 32 32h128v64h-64v64h-64v-64c-38.4 0-96-25.6-96-96s57.6-96 96-96z" />
<glyph unicode="&#xe63e;" glyph-name="te-product-extra-description" d="M886.4 128l89.6 224h-272v-64h176l-38.4-96h-144l-64 224h-121.6v-64h70.4l64-224zM704 48c0-26.51-21.49-48-48-48s-48 21.49-48 48c0 26.51 21.49 48 48 48s48-21.49 48-48zM928 48c0-26.51-21.49-48-48-48s-48 21.49-48 48c0 26.51 21.49 48 48 48s48-21.49 48-48zM608 704h128v-128h64v128h128v64h-128v128h-64v-128h-128zM128 832h512v64h-576v-704h416v64h-352zM224 576h384v-64h-384v64zM224 736h288v-64h-288v64zM224 416h192v-64h-192v64z" />
<glyph unicode="&#xe63f;" glyph-name="te-product-categories" d="M448 288h176l-38.4-96h-144l-64 224h-121.6v-64h70.4l64-224h240l89.6 224h-272zM448 48c0-26.51-21.49-48-48-48s-48 21.49-48 48c0 26.51 21.49 48 48 48s48-21.49 48-48zM672 48c0-26.51-21.49-48-48-48s-48 21.49-48 48c0 26.51 21.49 48 48 48s48-21.49 48-48zM64 896h64v-64h-64v64zM192 896h256v-64h-256v64zM64 736h64v-64h-64v64zM192 736h256v-64h-256v64zM64 576h64v-64h-64v64zM192 576h256v-64h-256v64zM576 896h64v-64h-64v64zM704 896h256v-64h-256v64zM576 736h64v-64h-64v64zM704 736h256v-64h-256v64zM576 576h64v-64h-64v64zM704 576h256v-64h-256v64z" />
<glyph unicode="&#xe640;" glyph-name="te-product-content" d="M886.4 128l89.6 224h-272v-64h176l-38.4-96h-144l-64 224h-121.6v-64h70.4l64-224zM704 48c0-26.51-21.49-48-48-48s-48 21.49-48 48c0 26.51 21.49 48 48 48s48-21.49 48-48zM928 48c0-26.51-21.49-48-48-48s-48 21.49-48 48c0 26.51 21.49 48 48 48s48-21.49 48-48zM960 896h-896v-192h896v192zM896 768h-768v64h768v-64zM64 0h192v640h-192v-640zM128 576h64v-512h-64v512zM384 576h512v-128h64v192h-640v-640h192v64h-128z" />
<glyph unicode="&#xe641;" glyph-name="te-product-meta-value" d="M662.4 160l121.6 288h-336v-64h240l-70.4-160h-179.2l-96 288h-150.4v-64h105.6l96-288zM448 80c0-26.51-21.49-48-48-48s-48 21.49-48 48c0 26.51 21.49 48 48 48s48-21.49 48-48zM704 80c0-26.51-21.49-48-48-48s-48 21.49-48 48c0 26.51 21.49 48 48 48s48-21.49 48-48zM329.6 633.6l6.4-9.6 25.6-44.8 6.4-9.6 48 16c9.6-9.6 22.4-16 35.2-19.2l6.4-38.4 3.2-9.6h76.8l3.2 9.6 6.4 38.4c12.8 6.4 25.6 12.8 35.2 19.2l48-16 6.4 9.6 25.6 44.8 6.4 9.6-3.2 6.4-28.8 25.6c0 6.4 3.2 12.8 3.2 22.4s0 12.8-3.2 22.4l28.8 25.6 6.4 6.4-6.4 9.6-25.6 48-6.4 9.6-48-16c-9.6 9.6-22.4 16-35.2 19.2l-6.4 38.4-3.2 12.8h-76.8l-3.2-9.6-6.4-38.4c-12.8-6.4-25.6-12.8-35.2-19.2l-48 16-6.4-12.8-25.6-44.8-6.4-9.6 6.4-9.6 28.8-25.6c0-6.4-3.2-12.8-3.2-22.4s0-12.8 3.2-22.4l-28.8-25.6-9.6-6.4zM432 694.4v3.2l3.2 25.6 22.4 19.2c6.4 6.4 12.8 9.6 19.2 9.6l25.6 9.6 25.6-9.6c6.4-3.2 12.8-6.4 19.2-9.6l22.4-19.2 3.2-25.6v-3.2c0-3.2 0-3.2 0-6.4s0-3.2 0-6.4v-3.2l-3.2-25.6-25.6-19.2c-6.4-6.4-12.8-9.6-19.2-9.6l-25.6-9.6-25.6 9.6c-6.4 3.2-12.8 6.4-19.2 9.6l-22.4 19.2-3.2 25.6v3.2c0 3.2 0 3.2 0 6.4 3.2 3.2 3.2 6.4 3.2 6.4z" />
<glyph unicode="&#xe642;" glyph-name="te-product-description" d="M886.4 128l89.6 224h-272v-64h176l-38.4-96h-144l-64 224h-121.6v-64h70.4l64-224zM704 48c0-26.51-21.49-48-48-48s-48 21.49-48 48c0 26.51 21.49 48 48 48s48-21.49 48-48zM928 48c0-26.51-21.49-48-48-48s-48 21.49-48 48c0 26.51 21.49 48 48 48s48-21.49 48-48zM128 832h576v-384h64v448h-704v-704h416v64h-352zM224 576h384v-64h-384v64zM224 736h384v-64h-384v64zM224 416h192v-64h-192v64z" />
<glyph unicode="&#xe643;" glyph-name="te-product-title" d="M448 352h176l-38.4-96h-144l-64 224h-121.6v-64h70.4l64-224h240l89.6 224h-272zM448 112c0-26.51-21.49-48-48-48s-48 21.49-48 48c0 26.51 21.49 48 48 48s48-21.49 48-48zM672 112c0-26.51-21.49-48-48-48s-48 21.49-48 48c0 26.51 21.49 48 48 48s48-21.49 48-48zM272 576v182.4h73.6v41.6h-195.2v-41.6h70.4v-182.4zM390.4 771.2c9.6 0 16 3.2 22.4 9.6s9.6 12.8 9.6 19.2c0 6.4-3.2 12.8-9.6 19.2s-12.8 6.4-22.4 6.4c-9.6 0-16-3.2-22.4-9.6s-9.6-12.8-9.6-19.2 3.2-16 9.6-19.2c6.4-3.2 12.8-6.4 22.4-6.4zM364.8 748.8h51.2v-172.8h-51.2v172.8zM467.2 636.8c0-19.2 6.4-35.2 16-44.8 12.8-9.6 25.6-16 48-16 6.4 0 16 0 22.4 3.2s12.8 3.2 19.2 9.6l-12.8 35.2c-6.4-3.2-12.8-6.4-19.2-6.4s-12.8 3.2-16 6.4c-3.2 3.2-6.4 9.6-6.4 16v67.2h41.6v38.4h-41.6v41.6h-51.2v-41.6h-25.6v-38.4h25.6v-70.4zM601.6 812.8h51.2v-236.8h-51.2v236.8zM864 662.4c0 19.2-3.2 35.2-12.8 48s-19.2 22.4-32 32c-12.8 6.4-28.8 9.6-44.8 9.6s-32-3.2-48-12.8-25.6-19.2-32-32c-9.6-12.8-12.8-28.8-12.8-44.8s3.2-32 12.8-44.8c9.6-12.8 19.2-22.4 35.2-32 16-6.4 32-12.8 51.2-12.8 32 0 54.4 9.6 70.4 28.8l-25.6 28.8c-6.4-6.4-12.8-9.6-19.2-12.8s-16-3.2-22.4-3.2c-12.8 0-22.4 3.2-32 9.6s-12.8 16-16 25.6h128c0 6.4 0 9.6 0 12.8zM732.8 678.4c3.2 9.6 6.4 19.2 16 25.6 6.4 6.4 16 9.6 28.8 9.6 9.6 0 19.2-3.2 28.8-9.6 6.4-6.4 12.8-16 12.8-25.6h-86.4z" />
<glyph unicode="&#xe644;" glyph-name="te-product-tabs" d="M480 896h-416v-896h896v736h-480v160zM896 672v-608h-768v768h288v-160h480zM448 448h176l-38.4-96h-144l-64 224h-121.6v-64h70.4l64-224h240l89.6 224h-272zM448 208c0-26.51-21.49-48-48-48s-48 21.49-48 48c0 26.51 21.49 48 48 48s48-21.49 48-48zM672 208c0-26.51-21.49-48-48-48s-48 21.49-48 48c0 26.51 21.49 48 48 48s48-21.49 48-48zM544 896v-96h64v32h288v-32h64v96z" />
<glyph unicode="&#xe645;" glyph-name="te-product-breadcrumbs" d="M448 352h176l-38.4-96h-144l-64 224h-121.6v-64h70.4l64-224h240l89.6 224h-272zM448 112c0-26.51-21.49-48-48-48s-48 21.49-48 48c0 26.51 21.49 48 48 48s48-21.49 48-48zM672 112c0-26.51-21.49-48-48-48s-48 21.49-48 48c0 26.51 21.49 48 48 48s48-21.49 48-48zM64 736h160v-64h-160v64zM313.6 588.8l76.8 115.2-76.8 115.2-51.2-38.4 51.2-76.8-51.2-76.8zM448 736h160v-64h-160v64zM646.4 780.8l51.2-76.8-51.2-76.8 51.2-38.4 76.8 115.2-76.8 115.2zM832 736h160v-64h-160v64z" />
<glyph unicode="&#xe646;" glyph-name="te-product-navigation" d="M448 544h240l-70.4-160h-179.2l-96 288h-150.4v-64h105.6l96-288h268.8l121.6 288h-336zM448 240c0-26.51-21.49-48-48-48s-48 21.49-48 48c0 26.51 21.49 48 48 48s48-21.49 48-48zM704 240c0-26.51-21.49-48-48-48s-48 21.49-48 48c0 26.51 21.49 48 48 48s48-21.49 48-48zM102.4 531.2l-76.8-115.2 76.8-115.2 51.2 38.4-51.2 76.8 51.2 76.8zM921.6 531.2l-51.2-38.4 51.2-76.8-51.2-76.8 51.2-38.4 76.8 115.2z" />
<glyph unicode="&#xe647;" glyph-name="te-product-gallery" d="M448 256h176l-38.4-96h-144l-64 224h-121.6v-64h70.4l64-224h240l89.6 224h-272zM448 16c0-26.51-21.49-48-48-48s-48 21.49-48 48c0 26.51 21.49 48 48 48s48-21.49 48-48zM672 16c0-26.51-21.49-48-48-48s-48 21.49-48 48c0 26.51 21.49 48 48 48s48-21.49 48-48zM672 896h-288v-448h288v448zM608 512h-160v320h160v-320zM736 896v-448h224v448h-224zM896 512h-96v320h96v-320zM320 896h-224v-448h224v448zM256 512h-96v320h96v-320z" />
<glyph unicode="&#xe648;" glyph-name="te-product-price" d="M662.4 160l121.6 288h-336v-64h240l-70.4-160h-179.2l-96 288h-150.4v-64h105.6l96-288zM448 80c0-26.51-21.49-48-48-48s-48 21.49-48 48c0 26.51 21.49 48 48 48s48-21.49 48-48zM704 80c0-26.51-21.49-48-48-48s-48 21.49-48 48c0 26.51 21.49 48 48 48s48-21.49 48-48zM512 636.8c-12.8 0-25.6 3.2-38.4 6.4s-25.6 9.6-35.2 16l-22.4-51.2c9.6-6.4 22.4-12.8 35.2-16s28.8-6.4 44.8-9.6v-35.2h38.4v35.2c25.6 3.2 41.6 12.8 54.4 25.6s19.2 32 19.2 48-3.2 28.8-12.8 38.4c-9.6 9.6-16 16-28.8 19.2-9.6 3.2-25.6 9.6-41.6 12.8s-25.6 6.4-32 9.6c-6.4 3.2-9.6 6.4-9.6 12.8s3.2 9.6 9.6 16c6.4 3.2 16 6.4 28.8 6.4 19.2 0 41.6-6.4 60.8-16l19.2 48c-9.6 6.4-19.2 9.6-28.8 12.8-12.8 3.2-22.4 6.4-35.2 6.4v35.2h-38.4v-35.2c-25.6-3.2-44.8-9.6-57.6-25.6-12.8-12.8-19.2-28.8-19.2-48 0-16 3.2-28.8 12.8-38.4s19.2-16 28.8-19.2c9.6-3.2 25.6-9.6 41.6-12.8s25.6-6.4 32-9.6c6.4-3.2 9.6-6.4 9.6-12.8 0-12.8-12.8-19.2-35.2-19.2z" />
<glyph unicode="&#xe649;" glyph-name="te-product-rating" d="M374.4 464l137.6 83.2 137.6-83.2-35.2 160 121.6 108.8-160 16-64 147.2-64-147.2-160-16 121.6-108.8-35.2-160zM454.4 684.8l38.4 3.2 16 35.2 3.2 16 6.4-16 16-35.2 38.4-3.2 16-3.2-12.8-9.6-28.8-25.6 6.4-35.2 3.2-16-12.8 6.4-32 19.2-32-19.2-12.8-6.4 3.2 16 6.4 35.2-28.8 25.6-12.8 12.8h19.2zM992 614.4l-92.8 9.6-35.2 83.2-35.2-83.2-92.8-9.6 70.4-60.8-19.2-89.6 76.8 44.8 76.8-44.8-19.2 89.6zM288 614.4l-92.8 9.6-35.2 83.2-35.2-83.2-92.8-9.6 70.4-60.8-19.2-89.6 76.8 44.8 76.8-44.8-19.2 89.6zM448 288h176l-38.4-96h-144l-64 224h-121.6v-64h70.4l64-224h240l89.6 224h-272zM448 48c0-26.51-21.49-48-48-48s-48 21.49-48 48c0 26.51 21.49 48 48 48s48-21.49 48-48zM672 48c0-26.51-21.49-48-48-48s-48 21.49-48 48c0 26.51 21.49 48 48 48s48-21.49 48-48z" />
<glyph unicode="&#xe64a;" glyph-name="te-product-add-to-wishlist" d="M800 352h-64v-128h-128v-64h128v-128h64v128h128v64h-128zM576 96v0l-41.6 44.8-22.4-22.4-323.2 326.4c0 0-16 16-32 38.4s-28.8 51.2-28.8 76.8c0 96 80 176 176 176s185.6-92.8 185.6-92.8l25.6-25.6 25.6 25.6c0 0 89.6 92.8 185.6 92.8s176-80 176-176c0-48-60.8-115.2-60.8-115.2l-16-16 38.4-44.8h3.2l16 16c0 0 80 70.4 80 160-3.2 131.2-112 240-243.2 240-108.8 0-179.2-67.2-208-92.8-28.8 25.6-99.2 92.8-208 92.8-131.2 0-240-108.8-240-240 0-44.8 19.2-86.4 41.6-115.2s38.4-48 38.4-48l368-368 22.4 22.4 41.6 44.8z" />
<glyph unicode="&#xe64b;" glyph-name="te-product-additional-info" d="M320 896v-224h64v160h64v-32h64v32h288v-32h64v32h64v-384h-64v32h-64v-96h192v512h-672zM448 736v-64h64v64h-64zM800 736v-64h64v64h-64zM64 608v-576h672v576h-672zM800 608v-64h64v64h-64zM128 544h544v-313l-83 83-23 22-90-90-137 138-22 23-189-189v326zM496 480c-26.528 0-48-21.472-48-48s21.472-48 48-48c26.528 0 48 21.472 48 48s-21.472 48-48 48zM316.938 316l160-160 22.062 23 67 67 106-106v-44h-544v31l188.938 189z" />
<glyph unicode="&#xe64c;" glyph-name="te-product-reviews" d="M512 800c-123.339 0-224-100.661-224-224 0-77.037 39.274-145.222 98.813-185.562-114.401-48.828-194.813-162.399-194.813-294.438h64c0 141.152 114.848 256 256 256 50.944 0 98.346-15.147 138.25-40.875l25.875 59.062c-12.549 7.541-25.743 14.177-39.312 20 59.747 40.309 99.187 108.615 99.187 185.813 0 123.339-100.661 224-224 224zM512 736c88.757 0 160-71.243 160-160s-71.243-160-160-160c-88.757 0-160 71.243-160 160s71.243 160 160 160zM758.938 399.813l-70-159.938-174.375-18.5 127.25-113.313-33.813-171.062 150.938 87.187 150.875-87.187-33.813 171.062 127.25 113.313-174.375 18.5-69.938 159.938zM758.938 240.25l26.25-60.062 67.563-7.187-46.625-41.5 13.5-68.5-60.687 35.062-60.813-35.125 13.562 68.562-46.625 41.5 67.562 7.187 26.313 60.062z" />
<glyph unicode="&#xe64d;" glyph-name="te-product-sharing" d="M640 800v-112l-256-179v67h-320v-256h320v67l256-179v-112h320v256h-320v-67l-233 163 233 163v-67h320v256zM704 736h192v-128h-192zM128 512h192v-128h-192zM704 288h192v-128h-192z" />
<glyph unicode="&#xe64e;" glyph-name="te-product-sku" d="M64 736v-576h64v576zM192 736v-576h192v576zM448 736v-576h64v576zM576 736v-576h128v576zM768 736v-576h64v576zM896 736v-576h64v576z" />
<glyph unicode="&#xe64f;" glyph-name="te-product-add-to-cart" d="M128 736c-17.625 0-32-14.375-32-32s14.375-32 32-32h71l84-336c7.125-28.5 32.625-48 62-48h399c28.875 0 53.375 19.125 61 47l83 305h-67l-77-288h-399l-84 336c-7.125 28.5-32.625 48-62 48zM704 288c-52.625 0-96-43.375-96-96s43.375-96 96-96c52.625 0 96 43.375 96 96s-43.375 96-96 96zM416 288c-52.625 0-96-43.375-96-96s43.375-96 96-96c52.625 0 96 43.375 96 96s-43.375 96-96 96zM512 736v-160h-96l128-128 128 128h-96v160zM416 224c18 0 32-14 32-32s-14-32-32-32c-18 0-32 14-32 32s14 32 32 32zM704 224c18 0 32-14 32-32s-14-32-32-32c-18 0-32 14-32 32s14 32 32 32z" />
<glyph unicode="&#xe650;" glyph-name="te-product-attribute" d="M128 736v-32c0-35.75-28.25-64-64-64h-32v-384h32c35.75 0 64-28.25 64-64v-32h768v32c0 35.75 28.25 64 64 64h32v384h-32c-35.75 0-64 28.25-64 64v32zM186 672h652c11.75-44.375 45.625-78.25 90-90v-268c-44.375-11.75-78.25-45.625-90-90h-652c-11.75 44.375-45.625 78.25-90 90v268c44.375 11.75 78.25 45.625 90 90zM256 544v-64h512v64zM256 416v-64h512v64z" />
<glyph unicode="&#xe651;" glyph-name="te-product-tags" d="M64 704v-512h674l9 11 210 245-210 245-9 11zM128 640h580l165-192-165-192h-580zM736 480c-17.625 0-32-14.375-32-32s14.375-32 32-32c17.625 0 32 14.375 32 32s-14.375 32-32 32z" />
<glyph unicode="&#xe652;" glyph-name="te-product-size_guide" d="M448 800v-64h306l-530-530v306h-64v-416h416v64h-306l530 530v-306h64v416z" />
<glyph unicode="&#xe653;" glyph-name="custom-menu" d="M96 608h480v-64h-480v64zM96 480h384v-64h-384v64zM96 352h352v-64h-352v64zM96 96h512v-64h-512v64zM96 224h416v-64h-416v64zM998.4 233.6l-444.8 246.4 201.6-505.6 44.8 172.8 105.6-105.6 44.8 44.8-105.6 105.6 153.6 41.6zM755.2 236.8l-12.8-54.4-60.8 153.6 147.2-83.2-73.6-16zM480 896h-384v-192h384v192zM416 768h-256v64h256v-64z" />
<glyph unicode="&#xe654;" glyph-name="te-cart-table" d="M512 896c-40.212 0-68.499-28.586-82.687-64h-269.313v-800h408.687c47.024-58.399 118.948-96 199.313-96 140.8 0 256 115.2 256 256 0 106.868-66.447 198.868-160 237.062v402.938h-269.313c-14.189 35.414-42.476 64-82.687 64zM512 832c18.081 0 32-13.919 32-32v-32h96v-64h-256v64h96v32c0 18.081 13.919 32 32 32zM224 768h96v-128h384v128h96v-322.25c-10.514 1.33-21.14 2.25-32 2.25-140.8 0-256-115.2-256-256 0-33.932 6.81-66.296 18.938-96h-306.938v672zM320 544v-64h384v64h-384zM320 416v-64h160v64h-160zM768 384c105.6 0 192-86.4 192-192s-86.4-192-192-192c-105.6 0-192 86.4-192 192s86.4 192 192 192zM864 278.375l-105.625-105.562-73.562 73.562-44.813-44.75 118.375-118.438 150.438 150.438-44.813 44.75z" />
<glyph unicode="&#xe655;" glyph-name="te-cart-totals" d="M512 800l-159-159 1-1h-2l16-64h437l-61-224h-367l-84 336c-7.125 28.5-32.625 48-62 48h-71c-17.625 0-32-14.375-32-32s14.375-32 32-32h71l84-336c7.125-28.5 32.625-48 62-48h367c28.875 0 53.375 19.125 61 47l83 305h-56l-160 160-80-80zM704 288c-52.625 0-96-43.375-96-96s43.375-96 96-96c52.625 0 96 43.375 96 96s-43.375 96-96 96zM416 288c-52.625 0-96-43.375-96-96s43.375-96 96-96c52.625 0 96 43.375 96 96s-43.375 96-96 96zM512 709l70-69h-139zM672 709l69-69h-69l-34 34zM416 224c18 0 32-14 32-32s-14-32-32-32c-18 0-32 14-32 32s14 32 32 32zM704 224c18 0 32-14 32-32s-14-32-32-32c-18 0-32 14-32 32s14 32 32 32z" />
<glyph unicode="&#xe656;" glyph-name="te-cart-checkout-steps" d="M678 887l-45-46 137-137h-386v-64h386l-137-137 45-46 215 215zM128 704v-64h64v64zM256 704v-64h64v64zM314 439l-215-215 215-215 45 46-137 137h386v64h-386l137 137zM672 256v-64h64v64zM800 256v-64h64v64z" />
<glyph unicode="&#xe657;" glyph-name="te-cart-checkout-notices" d="M512 909l-461-461 461-461 461 461zM512 819l371-371-371-371-371 371zM480 640v-256h64v256zM480 320v-64h64v64z" />
<glyph unicode="&#xe658;" glyph-name="te-checkout-billing" d="M128 800v-192h32v-512h370.938c38.194-93.553 130.194-160 237.062-160 140.8 0 256 115.2 256 256 0 106.868-66.447 198.868-160 237.062v178.938h32v192h-768zM192 736h640v-64h-640v64zM224 608h576v-162.25c-10.514 1.33-21.14 2.25-32 2.25-140.8 0-256-115.2-256-256 0-10.86 0.92-21.486 2.25-32h-290.25v448zM416 544c-0.135 0.002-0.293 0.003-0.453 0.003-17.675 0-32.003-14.328-32.003-32.003s14.328-32.003 32.003-32.003c0.159 0 0.318 0.001 0.477 0.003h191.976c0.135-0.002 0.293-0.003 0.453-0.003 17.675 0 32.003 14.328 32.003 32.003s-14.328 32.003-32.003 32.003c-0.159 0-0.318-0.001-0.477-0.003h-191.976zM768 384c105.6 0 192-86.4 192-192s-86.4-192-192-192c-105.6 0-192 86.4-192 192s86.4 192 192 192zM864 278.375l-105.625-105.562-73.562 73.562-44.813-44.75 118.375-118.438 150.438 150.438-44.813 44.75z" />
<glyph unicode="&#xe659;" glyph-name="te-checkout-shipping" d="M32 800v-672h101c14.25-55 63.75-96 123-96s108.75 41 123 96h266c14.25-55 63.75-96 123-96s108.75 41 123 96h101v333l-9 10-192 192-10 9h-173v128zM96 736h448v-544h-165c-14.25 55-63.75 96-123 96s-108.75-41-123-96h-37zM320 704c-105.625 0-192-86.375-192-192s86.375-192 192-192c105.625 0 192 86.375 192 192s-86.375 192-192 192zM320 640c71.125 0 128-56.875 128-128s-56.875-128-128-128c-71.125 0-128 56.875-128 128s56.875 128 128 128zM288 608v-109l9-10 46-45 45 45-36 37v82zM608 608h146l174-174v-242h-37c-14.25 55-63.75 96-123 96s-108.75-41-123-96h-37zM256 224c35.75 0 64-28.25 64-64s-28.25-64-64-64c-35.75 0-64 28.25-64 64s28.25 64 64 64zM768 224c35.75 0 64-28.25 64-64s-28.25-64-64-64c-35.75 0-64 28.25-64 64s28.25 64 64 64z" />
<glyph unicode="&#xe65a;" glyph-name="te-checkout-order" d="M224 800v-480h-96v-256h64v192h32v-96h576v96h32v-192h64v256h-96v479l-43-16-115-44-116 54-14 7-14-7-115-54-115 45zM512 728l127-59 12 5 85 33v-483h-448v483l84-33 13-5 13 6zM352 544v-64h192v64zM608 544v-64h64v64zM352 416v-64h192v64zM608 416v-64h64v64z" />
<glyph unicode="&#xe65b;" glyph-name="te-checkout-payment" d="M192 768c-52.8 0-96-43.2-96-96v-416c0-52.8 43.2-96 96-96h264.313c-5.12 20.16-7.993 41.6-8.313 64h-256c-17.6 0-32 14.4-32 32v416c0 17.6 14.4 32 32 32h640c17.6 0 32-14.4 32-32v-32h-672v-64h672v-52.813c8-3.84 15.695-7.965 23.375-12.125 13.12-6.4 25.905-12.825 40.625-17.625v178.562c0 52.8-43.2 96-96 96h-640zM768 483.187c-35.2 0-60.775-12.812-86.375-28.812-32-16-70.425-35.188-137.625-35.188h-32v-192c0-179.2 233.587-281.612 243.187-284.812l12.813-6.375 12.813 6.375c9.6 3.2 243.187 105.612 243.187 284.812v192h-32c-64 0-102.375 19.188-134.375 35.188-28.8 16-54.425 28.812-89.625 28.812zM768 419.187c19.2 0 35.225-9.575 57.625-22.375 35.2-16 73.575-35.225 134.375-41.625v-128c0-118.4-147.2-198.412-192-220.812-44.8 22.4-192 102.412-192 220.812v128c64 6.4 105.575 28.813 134.375 44.813 22.4 9.6 38.425 19.187 57.625 19.187z" />
<glyph unicode="&#xe65c;" glyph-name="te-checkout-coupon" d="M512 877l-22-22-84-81-115 16-31 5-5-31-20-114-131-70 14-27 51-105-51-105-14-27 28-15 103-55 20-114 5-31 31 5 115 16 84-81 22-22 22 22 84 81 115-16 31-5 5 31 20 114 131 70-14 27-51 105 51 105 14 27-28 15-103 55-20 114-5 31-31-5-115-16-84 81zM512 788l73-71 11-11 15 2 100 15 18-100 3-15 14-8 88-47-44-91-6-14 6-14 44-91-88-47-14-8-3-15-18-100-100 15-15 2-11-11-73-71-73 71-11 11-15-2-100-15-18 100-3 15-14 8-88 47 44 91 6 14-6 14-44 91 88 47 14 8 3 15 18 100 100-15 15-2 11 11zM576 640l-192-384h64l192 384zM400 576c-26.5 0-48-21.5-48-48s21.5-48 48-48c26.5 0 48 21.5 48 48s-21.5 48-48 48zM624 416c-26.5 0-48-21.5-48-48s21.5-48 48-48c26.5 0 48 21.5 48 48s-21.5 48-48 48z" />
<glyph unicode="&#xe65d;" glyph-name="te-checkout-login" d="M512 832c-178.5 0-328.25-122.625-371-288h66c40.875 129.75 162 224 305 224 176.5 0 320-143.5 320-320s-143.5-320-320-320c-143 0-264.125 94.25-305 224h-66c42.75-165.375 192.5-288 371-288 211.75 0 384 172.25 384 384s-172.25 384-384 384zM491 599l-46-46 73-73h-390v-64h390l-73-73 46-46 128 128 22 23-22 23z" />
<glyph unicode="&#xe65e;" glyph-name="te-blog-title" d="M150.4 534.4h70.4v-182.4h51.2v182.4h73.6v41.6h-195.2zM364.8 524.8h51.2v-172.8h-51.2v172.8zM390.4 604.8c-9.6 0-16-3.2-22.4-9.6s-9.6-12.8-9.6-19.2 3.2-16 9.6-19.2c6.4-6.4 12.8-9.6 22.4-9.6s16 3.2 22.4 9.6c6.4 6.4 9.6 12.8 9.6 19.2s-3.2 12.8-9.6 19.2c-6.4 6.4-12.8 9.6-22.4 9.6zM537.6 390.4c-6.4 0-12.8 3.2-16 6.4s-6.4 9.6-6.4 16v70.4h41.6v38.4h-41.6v41.6h-51.2v-41.6h-25.6v-38.4h25.6v-70.4c0-19.2 6.4-35.2 16-44.8 12.8-9.6 25.6-16 48-16 6.4 0 16 0 22.4 3.2s12.8 3.2 19.2 9.6l-12.8 35.2c-3.2-9.6-9.6-9.6-19.2-9.6zM601.6 588.8h51.2v-236.8h-51.2v236.8zM864 438.4c0 19.2-3.2 35.2-12.8 48s-19.2 22.4-32 32c-12.8 6.4-28.8 9.6-44.8 9.6s-32-3.2-48-12.8-25.6-19.2-32-32c-9.6-12.8-12.8-28.8-12.8-44.8s3.2-32 12.8-44.8c9.6-12.8 19.2-22.4 35.2-32 16-6.4 32-12.8 51.2-12.8 32 0 54.4 9.6 70.4 28.8l-25.6 28.8c-6.4-6.4-12.8-9.6-19.2-12.8s-16-3.2-22.4-3.2c-12.8 0-22.4 3.2-32 9.6s-12.8 16-16 25.6h128c0 6.4 0 9.6 0 12.8zM732.8 454.4c3.2 9.6 6.4 19.2 12.8 25.6s16 9.6 28.8 9.6c9.6 0 19.2-3.2 28.8-9.6 6.4-6.4 12.8-16 12.8-25.6h-83.2z" />
<glyph unicode="&#xe65f;" glyph-name="te-blog-description" d="M160 800v-704h704v704zM224 736h576v-576h-576zM320 640v-64h384v64zM320 480v-64h384v64zM320 320v-64h192v64z" />
<glyph unicode="&#xe660;" glyph-name="te-blog-breadcrumbs" d="M64 480h160v-64h-160v64zM262.4 524.8l51.2-76.8-51.2-76.8 51.2-38.4 76.8 115.2-76.8 115.2zM448 480h160v-64h-160v64zM646.4 524.8l51.2-76.8-51.2-76.8 51.2-38.4 76.8 115.2-76.8 115.2zM832 480h160v-64h-160v64z" />
<glyph unicode="&#xe661;" glyph-name="te-featured-image" d="M64 800v-704h896v704zM128 736h768v-576h-768zM192 672v-448h640v448zM256 608h512v-320h-512z" />
<glyph unicode="&#xe662;" glyph-name="te-post-comments" d="M128 832v-512h128v-128h128v-162.562l203.25 162.562h308.75v512h-128v128h-640zM192 768h512v-64h-448v-320h-64v384zM320 640h512v-384h-267.25l-116.75-93.375v93.375h-128v384zM416 544v-64h320v64h-320zM416 416v-64h192v64h-192z" />
<glyph unicode="&#xe663;" glyph-name="te-post-content" d="M160 800v-192h704v192zM224 736h576v-64h-576zM160 544v-448h448v448zM672 544v-448h192v448zM224 480h320v-320h-320zM736 480h64v-320h-64z" />
<glyph unicode="&#xe664;" glyph-name="te-author-box" d="M160 800v-192h64v128h128v64h-192zM672 800v-64h128v-128h64v192h-192zM512 640c-70.315 0-128-57.685-128-128 0-34.996 14.351-66.816 37.375-90-59.369-32.74-101.375-93.714-101.375-166h64c0 71.052 56.948 128 128 128s128-56.948 128-128h64c0 72.286-42.006 133.26-101.375 166 23.024 23.184 37.375 55.004 37.375 90 0 70.315-57.685 128-128 128zM512 576c35.733 0 64-28.267 64-64s-28.267-64-64-64c-35.733 0-64 28.267-64 64s28.267 64 64 64zM160 288v-192h192v64h-128v128h-64zM800 288v-128h-128v-64h192v192h-64z" />
<glyph unicode="&#xe665;" glyph-name="te-post-info" d="M512 896c-40.32 0-68.795-28.48-82.875-64h-269.125v-800h704v800h-269.125c-14.080 35.52-42.555 64-82.875 64zM512 832c17.6 0 32-14.4 32-32v-32h96v-64h-256v64h96v32c0 17.6 14.4 32 32 32zM224 768h96v-128h384v128h96v-672h-576v672zM288 544v-64h64v64h-64zM416 544v-64h320v64h-320zM288 416v-64h64v64h-64zM416 416v-64h320v64h-320zM288 288v-64h64v64h-64zM416 288v-64h320v64h-320z" />
<glyph unicode="&#xe666;" glyph-name="te-post-excerpt" d="M32 768v-640h128v64h-64v512h64v64zM864 768v-64h64v-512h-64v-64h128v640zM224 608v-64h576v64zM224 480v-64h480v64zM224 352v-64h576v64z" />
<glyph unicode="&#xe667;" glyph-name="te-featured-content" d="M128 800v-192h32v-512h704v512h32v192h-768zM192 736h640v-64h-640v64zM224 608h576v-448h-576v448zM518.562 544l-48.812-110.938-121.125-12.813 89.25-78.937-23.438-117.313 104.125 59.75 104.188-59.75-23.375 117.375 89.25 78.938-121.125 12.75-48.938 110.938z" />
<glyph unicode="&#xe668;" glyph-name="te-post-navigation" d="M233.375 630.625l-182.625-182.625 182.625-182.625 45.25 45.25-137.375 137.375 137.375 137.375-45.25 45.25zM790.625 630.625l-45.25-45.25 137.375-137.375-137.375-137.375 45.25-45.25 182.625 182.625-182.625 182.625zM384 480c-17.673 0-32-14.327-32-32s14.327-32 32-32v0c17.673 0 32 14.327 32 32s-14.327 32-32 32v0zM512 480c-17.673 0-32-14.327-32-32s14.327-32 32-32v0c17.673 0 32 14.327 32 32s-14.327 32-32 32v0zM640 480c-17.673 0-32-14.327-32-32s14.327-32 32-32v0c17.673 0 32 14.327 32 32s-14.327 32-32 32v0z" />
<glyph unicode="&#xe669;" glyph-name="te-social-sharing" d="M816 288c-45.792 0-86.176-21.888-112.576-55.296l-355.040 168.192c2.24 10.048 3.616 20.384 3.616 31.104 0 12.8-2.208 24.992-5.376 36.8l360.64 189.824c26.464-30.72 65.12-50.624 108.736-50.624 79.392 0 144 64.608 144 144s-64.608 144-144 144-144-64.608-144-144c0-12.8 2.208-24.992 5.376-36.8l-360.64-189.824c-26.464 30.72-65.12 50.624-108.736 50.624-79.392 0-144-64.608-144-144s64.608-144 144-144c45.792 0 86.176 21.888 112.576 55.296l355.040-168.16c-2.24-10.048-3.616-20.416-3.616-31.136 0-79.392 64.608-144 144-144s144 64.608 144 144-64.608 144-144 144zM816 832c44.128 0 80-35.904 80-80s-35.872-80-80-80-80 35.904-80 80 35.872 80 80 80zM208 352c-44.096 0-80 35.872-80 80 0 44.096 35.904 80 80 80s80-35.904 80-80c0-44.128-35.904-80-80-80zM816 64c-44.128 0-80 35.872-80 80s35.872 80 80 80 80-35.872 80-80-35.872-80-80-80z" />
<glyph unicode="&#xe66a;" glyph-name="te-custom-fields" d="M64 704v-192h192v192zM320 704v-64h640v64zM128 640h64v-64h-64zM320 576v-64h512v64zM64 384v-192h192v192zM320 384v-64h640v64zM128 320h64v-64h-64zM320 256v-64h512v64z" />
<glyph unicode="&#xe66b;" glyph-name="custom-icon-31" d="M101.376 529.76l-75.84-113.76 75.84-113.76 53.248 35.52-52.16 78.24 52.16 78.24zM922.624 529.76l-53.248-35.52 52.16-78.24-52.16-78.24 53.248-35.52 75.84 113.76zM224 480h576v416h-576v-416zM288 832h448v-288h-448v288zM224 0h576v416h-576v-416zM288 352h448v-288h-448v288zM352 672h96v-64h-96v64zM352 192h96v-64h-96v64z" />
<glyph unicode="&#xe66c;" glyph-name="custom-icon-30" d="M101.376 529.76l-75.84-113.76 75.84-113.76 53.248 35.52-52.16 78.24 52.16 78.24zM922.624 529.76l-53.248-35.52 52.16-78.24-52.16-78.24 53.248-35.52 75.84 113.76zM224 96h576v704h-576v-704zM288 160v146.752l128 128 160-160 96 96 64-64v-146.752h-448zM736 736v-338.752l-64 64-96-96-160 160-128-128v338.752h448zM624 544c16 0 25.6 3.2 35.2 12.8s12.8 22.4 12.8 35.2c0 16-3.2 25.6-12.8 35.2s-22.4 12.8-35.2 12.8-25.6-3.2-35.2-12.8c-9.6-9.6-12.8-22.4-12.8-35.2 0-16 3.2-25.6 12.8-35.2s22.4-12.8 35.2-12.8z" />
<glyph unicode="&#xe66d;" glyph-name="extended_filter" d="M192 832v-128c0-32 16-60.8 41.6-80l214.4-163.2v-396.8l128 128v272l214.4 163.2c25.6 16 41.6 48 41.6 76.8v128h-640zM256 768h512v-64c0-9.6-6.4-19.2-12.8-25.6v0l-220.8-166.4h-41.6l-220.8 166.4c-9.6 6.4-16 16-16 25.6v64z" />
<glyph unicode="&#xe66e;" glyph-name="extended_sorting" d="M128 832v-64h768v64h-768zM128 704v-64h640v64h-640zM128 576v-64h512v64h-512zM128 448v-64h384v64h-384zM128 320v-64h256v64h-256zM128 192v-64h128v64h-128z" />
<glyph unicode="&#xe66f;" glyph-name="wp_hook" d="M800 832c-41.6 0-76.8-25.6-89.6-64h-358.4c-51.2 0-96-25.6-124.8-64-3.2 0-3.2 0-3.2 0-51.2 0-96-44.8-96-96s44.8-96 96-96c0 0 0 0 3.2 0 28.8-38.4 73.6-64 124.8-64h320c25.6 0 48-9.6 64-25.6-19.2-19.2-32-41.6-32-70.4s12.8-54.4 32-70.4c-16-16-38.4-25.6-64-25.6h-358.4c-12.8 38.4-48 64-89.6 64-51.2 0-96-44.8-96-96s44.8-96 96-96c41.6 0 76.8 25.6 89.6 64h358.4c51.2 0 96 25.6 124.8 64 0 0 0 0 3.2 0 51.2 0 96 44.8 96 96s-44.8 96-96 96c0 0 0 0-3.2 0-28.8 38.4-73.6 64-124.8 64h-320c-25.6 0-48 9.6-64 25.6 19.2 19.2 32 41.6 32 70.4s-12.8 54.4-32 70.4c16 16 38.4 25.6 64 25.6h358.4c12.8-38.4 48-64 89.6-64 51.2 0 96 44.8 96 96s-44.8 96-96 96zM800 768c19.2 0 32-12.8 32-32s-12.8-32-32-32-32 12.8-32 32 12.8 32 32 32zM224 640c19.2 0 32-12.8 32-32s-12.8-32-32-32-32 12.8-32 32 12.8 32 32 32zM800 384c19.2 0 32-12.8 32-32s-12.8-32-32-32-32 12.8-32 32 12.8 32 32 32zM224 256c19.2 0 32-12.8 32-32s-12.8-32-32-32-32 12.8-32 32 12.8 32 32 32z" />
</font>
</defs>
</svg>
